<?xml version="1.0" standalone="no"?>
<!DOCTYPE svg PUBLIC "-//W3C//DTD SVG 1.1//EN" "http://www.w3.org/Graphics/SVG/1.1/DTD/svg11.dtd" >
<svg xmlns="http://www.w3.org/2000/svg" xmlns:xlink="http://www.w3.org/1999/xlink" version="1.1">
<metadata>
Created by FontForge 20170910 at Wed Mar  4 20:06:32 2009
 By Jimmy Wärting
Copyright (c) 2008 by Luc(as) de Groot. All rights reserved.
</metadata>
<defs>
<font id="TheSans-Bold" horiz-adv-x="550" >
  <font-face 
    font-family="TheSans"
    font-weight="700"
    font-stretch="normal"
    units-per-em="1000"
    panose-1="2 11 8 3 4 3 2 2 2 3"
    ascent="750"
    descent="-250"
    x-height="497"
    cap-height="675"
    bbox="-152 -320 2985 980"
    underline-thickness="41"
    underline-position="-231"
    stemh="106"
    stemv="129"
    unicode-range="U+0020-FEFC"
  />
<missing-glyph 
d="M300 150h-150v250h50v-200h100v-50zM500 50h-450v450h450v-450zM350 350h-100v50h150v-250h-50v100h-100v50h100v50zM100 100h350v350h-350v-350z" />
    <glyph glyph-name="lam_alef_madda.isol" unicode="&#xfedf;&#xfe82;" horiz-adv-x="597" arabic-form="isolated" 
d="M162 712l146 -533h-134l-143 515zM513 0h-441v104h309v601h132v-705zM25 767l-46 63l105 78c14 -13 53 -39 94 -39c48 0 87 27 104 41v-96c-16 -13 -54 -38 -110 -38c-47 0 -77 21 -89 32z" />
    <glyph glyph-name="lam_alef_madda.fina" unicode="&#xfee0;&#xfe82;" horiz-adv-x="597" arabic-form="final" 
d="M72 0v104h309v601h132v-601h100v-104h-541zM162 712l146 -533h-134l-143 515zM25 767l-46 63l105 78c14 -13 53 -39 94 -39c48 0 87 27 104 41v-96c-16 -13 -54 -38 -110 -38c-47 0 -77 21 -89 32z" />
    <glyph glyph-name="lam_alef_hamza_above.isol" unicode="&#xfedf;&#xfe84;" horiz-adv-x="597" arabic-form="isolated" 
d="M162 695l146 -516h-134l-143 498zM513 0h-441v104h309v584h132v-688zM-20 750v69c24 0 46 -1 59 -4c-11 6 -18 24 -18 39c0 56 36 106 141 106c27 0 52 -3 59 -5l-12 -69c-5 1 -26 5 -49 5c-32 0 -49 -14 -49 -34c0 -22 18 -38 70 -38h57v-69h-258z" />
    <glyph glyph-name="lam_alef_hamza_above.fina" unicode="&#xfee0;&#xfe84;" horiz-adv-x="597" arabic-form="final" 
d="M613 0h-541v104h309v584h132v-584h100v-104zM162 695l146 -516h-134l-143 498zM-20 750v69c24 0 46 -1 59 -4c-11 6 -18 24 -18 39c0 56 36 106 141 106c27 0 52 -3 59 -5l-12 -69c-5 1 -26 5 -49 5c-32 0 -49 -14 -49 -34c0 -22 18 -38 70 -38h57v-69h-258z" />
    <glyph glyph-name="lam_alef_hamza_below.isol" unicode="&#xfedf;&#xfe88;" horiz-adv-x="597" arabic-form="isolated" 
d="M162 712l146 -533h-134l-143 515zM513 0h-441v104h309v601h132v-705zM82 -268v73c18 0 36 -1 49 -4c-7 6 -13 18 -13 33c0 54 42 103 139 103c26 0 52 -3 59 -5l-12 -72c-7 1 -27 5 -48 5c-28 0 -44 -12 -44 -29c0 -20 17 -31 63 -31h59v-73h-252z" />
    <glyph glyph-name="lam_alef_hamza_below.fina" unicode="&#xfee0;&#xfe88;" horiz-adv-x="597" arabic-form="final" 
d="M72 0v104h309v601h132v-601h100v-104h-541zM162 712l146 -533h-134l-143 515zM82 -268v73c18 0 36 -1 49 -4c-7 6 -13 18 -13 33c0 54 42 103 139 103c26 0 52 -3 59 -5l-12 -72c-7 1 -27 5 -48 5c-28 0 -44 -12 -44 -29c0 -20 17 -31 63 -31h59v-73h-252z" />
    <glyph glyph-name="lam_alef.isol" unicode="&#xfedf;&#xfe8e;" horiz-adv-x="597" arabic-form="isolated" 
d="M162 712l146 -533h-134l-143 515zM513 0h-441v104h309v601h132v-705z" />
    <glyph glyph-name="lam_alef.fina" unicode="&#xfee0;&#xfe8e;" horiz-adv-x="597" arabic-form="final" 
d="M613 0h-541v104h309v601h132v-601h100v-104zM162 712l146 -533h-134l-143 515z" />
    <glyph glyph-name="hamza.isol" unicode="&#x621;" horiz-adv-x="492" arabic-form="isolated" 
d="M42 0v103c35 0 70 -2 92 -6c-22 11 -35 37 -35 68c0 84 60 167 217 167c40 0 79 -5 90 -7l-16 -104c-9 2 -44 8 -80 8c-52 0 -79 -25 -79 -59c0 -39 30 -67 114 -67h89v-103h-392z" />
    <glyph glyph-name="alef_madda.isol" unicode="&#x622;" horiz-adv-x="302" arabic-form="isolated" 
d="M85 0v705h132v-705h-132zM26 767l-46 63l105 78c14 -13 53 -39 94 -39c48 0 87 27 104 41v-96c-16 -13 -54 -38 -110 -38c-47 0 -77 21 -89 32z" />
    <glyph glyph-name="alef_madda.fina" unicode="&#x622;" horiz-adv-x="302" arabic-form="final" 
d="M85 0v705h132v-601h100v-104h-232zM26 767l-46 63l105 78c14 -13 53 -39 94 -39c48 0 87 27 104 41v-96c-16 -13 -54 -38 -110 -38c-47 0 -77 21 -89 32z" />
    <glyph glyph-name="alef_hamza_above.isol" unicode="&#x623;" horiz-adv-x="302" arabic-form="isolated" 
d="M15 750v69c24 0 46 -1 59 -4c-11 6 -18 24 -18 39c0 56 36 106 141 106c27 0 52 -3 59 -5l-12 -69c-5 1 -26 5 -49 5c-32 0 -49 -14 -49 -34c0 -22 18 -38 70 -38h57v-69h-258zM85 0v688h132v-688h-132z" />
    <glyph glyph-name="alef_hamza_above.fina" unicode="&#x623;" horiz-adv-x="302" arabic-form="final" 
d="M85 0v688h132v-584h100v-104h-232zM15 750v69c24 0 46 -1 59 -4c-11 6 -18 24 -18 39c0 56 36 106 141 106c27 0 52 -3 59 -5l-12 -69c-5 1 -26 5 -49 5c-32 0 -49 -14 -49 -34c0 -22 18 -38 70 -38h57v-69h-258z" />
    <glyph glyph-name="waw_hamza.isol" unicode="&#x624;" horiz-adv-x="586" arabic-form="isolated" 
d="M199 -252c-75 0 -152 13 -152 13l8 108s78 -17 156 -17c104 0 173 39 173 133v15h-78c-195 0 -268 90 -268 232c0 131 81 251 265 251c118 0 209 -35 209 -35v-450c0 -138 -89 -250 -313 -250zM384 104v257s-38 18 -95 18c-75 0 -119 -57 -119 -135
c0 -91 45 -140 150 -140h64zM159 554v75c21 0 42 -1 56 -4c-12 6 -19 24 -19 39c0 56 40 112 145 112c27 0 52 -4 59 -5l-12 -75c-5 1 -27 5 -50 5c-31 0 -48 -14 -48 -34c0 -22 18 -38 69 -38h57v-75h-257z" />
    <glyph glyph-name="waw_hamza.fina" unicode="&#x624;" horiz-adv-x="595" arabic-form="final" 
d="M199 -252c-75 0 -152 13 -152 13l8 108s78 -17 156 -17c104 0 173 39 173 133v15h-78c-195 0 -268 90 -268 232c0 131 81 251 265 251c118 0 209 -35 209 -35v-344h99v-104h-99v-2c0 -138 -89 -250 -313 -250zM384 104v257s-38 18 -95 18c-75 0 -119 -57 -119 -135
c0 -91 45 -140 150 -140h64zM159 554v75c21 0 42 -1 56 -4c-12 6 -19 24 -19 39c0 56 40 112 145 112c27 0 52 -4 59 -5l-12 -75c-5 1 -27 5 -50 5c-31 0 -48 -14 -48 -34c0 -22 18 -38 69 -38h57v-75h-257z" />
    <glyph glyph-name="alef_hamza_below.isol" unicode="&#x625;" horiz-adv-x="302" arabic-form="isolated" 
d="M85 0v705h132v-705h-132zM5 -268v73c18 0 36 -1 49 -4c-7 6 -13 18 -13 33c0 54 42 103 139 103c26 0 52 -3 59 -5l-12 -72c-7 1 -27 5 -48 5c-28 0 -44 -12 -44 -29c0 -20 17 -31 63 -31h59v-73h-252z" />
    <glyph glyph-name="alef_hamza_below.fina" unicode="&#x625;" horiz-adv-x="302" arabic-form="final" 
d="M85 0v705h132v-601h100v-104h-232zM5 -268v73c18 0 36 -1 49 -4c-7 6 -13 18 -13 33c0 54 42 103 139 103c26 0 52 -3 59 -5l-12 -72c-7 1 -27 5 -48 5c-28 0 -44 -12 -44 -29c0 -20 17 -31 63 -31h59v-73h-252z" />
    <glyph glyph-name="yeh_hamza_above.isol" unicode="&#x626;" horiz-adv-x="1000" arabic-form="isolated" 
d="M626 0h-209c-272 0 -367 113 -367 296c0 54 11 116 26 157l141 23c-21 -46 -34 -112 -34 -165c0 -141 61 -207 248 -207h68v360s93 19 201 19c176 0 231 -84 231 -221v-126h-128v112c0 96 -28 131 -111 131c-33 0 -66 -6 -66 -6v-373zM44 554v75c21 0 42 -1 56 -4
c-12 6 -19 24 -19 39c0 56 40 112 145 112c27 0 52 -4 59 -5l-12 -75c-5 1 -27 5 -50 5c-31 0 -48 -14 -48 -34c0 -22 18 -38 69 -38h57v-75h-257z" />
    <glyph glyph-name="yeh_hamza_above.fina" unicode="&#x626;" horiz-adv-x="1000" arabic-form="final" 
d="M626 0h-209c-272 0 -367 113 -367 296c0 54 11 116 26 157l141 23c-21 -46 -34 -112 -34 -165c0 -141 61 -207 248 -207h68v360s93 19 201 19c176 0 231 -84 231 -221v-158h84v-104h-212v248c0 96 -28 131 -111 131c-33 0 -66 -6 -66 -6v-373zM44 554v75
c21 0 42 -1 56 -4c-12 6 -19 24 -19 39c0 56 40 112 145 112c27 0 52 -4 59 -5l-12 -75c-5 1 -27 5 -50 5c-31 0 -48 -14 -48 -34c0 -22 18 -38 69 -38h57v-75h-257z" />
    <glyph glyph-name="yeh_hamza_above.init" unicode="&#x626;" horiz-adv-x="346" arabic-form="initial" 
d="M0 0v104h140v366h132v-470h-272zM57 554v75c21 0 42 -1 56 -4c-12 6 -19 24 -19 39c0 56 40 112 145 112c27 0 52 -4 59 -5l-12 -75c-5 1 -27 5 -50 5c-31 0 -48 -14 -48 -34c0 -22 18 -38 69 -38h57v-75h-257z" />
    <glyph glyph-name="yeh_hamza_above.medi" unicode="&#x626;" horiz-adv-x="355" arabic-form="medial" 
d="M0 0v104h140v366h132v-366h98v-104h-370zM57 554v75c21 0 42 -1 56 -4c-12 6 -19 24 -19 39c0 56 40 112 145 112c27 0 52 -4 59 -5l-12 -75c-5 1 -27 5 -50 5c-31 0 -48 -14 -48 -34c0 -22 18 -38 69 -38h57v-75h-257z" />
    <glyph glyph-name="alef.isol" unicode="&#x627;" horiz-adv-x="302" arabic-form="isolated" 
d="M85 0v705h132v-705h-132z" />
    <glyph glyph-name="alef.fina" unicode="&#x627;" horiz-adv-x="302" arabic-form="final" 
d="M85 0v705h132v-601h100v-104h-232z" />
    <glyph glyph-name="beh.isol" unicode="&#x628;" horiz-adv-x="773" arabic-form="isolated" 
d="M699 0h-282c-272 0 -367 113 -367 296c0 54 11 116 26 157l141 23c-21 -46 -34 -112 -34 -165c0 -141 61 -207 248 -207h136v366h132v-470zM395 -219c-38 0 -69 30 -69 69c0 38 31 69 69 69s69 -30 69 -69c0 -38 -31 -69 -69 -69z" />
    <glyph glyph-name="beh.fina" unicode="&#x628;" horiz-adv-x="782" arabic-form="final" 
d="M417 0c-272 0 -367 113 -367 296c0 54 11 116 26 157l141 23c-21 -46 -34 -112 -34 -165c0 -141 61 -207 248 -207h136v366h132v-366h99v-104h-381zM395 -219c-38 0 -69 30 -69 69c0 38 31 69 69 69s69 -30 69 -69c0 -38 -31 -69 -69 -69z" />
    <glyph glyph-name="beh.init" unicode="&#x628;" horiz-adv-x="346" arabic-form="initial" 
d="M0 0v104h140v366h132v-470h-272zM132 -219c-38 0 -69 30 -69 69c0 38 31 69 69 69s69 -30 69 -69c0 -38 -31 -69 -69 -69z" />
    <glyph glyph-name="beh.medi" unicode="&#x628;" horiz-adv-x="355" arabic-form="medial" 
d="M0 0v104h140v366h132v-366h98v-104h-370zM132 -219c-38 0 -69 30 -69 69c0 38 31 69 69 69s69 -30 69 -69c0 -38 -31 -69 -69 -69z" />
    <glyph glyph-name="tehmarbuta.isol" unicode="&#x629;" horiz-adv-x="594" arabic-form="isolated" 
d="M525 0h-219c-195 0 -268 90 -268 231c0 136 87 252 261 252c156 0 226 -90 226 -230v-253zM396 104v133c0 100 -40 142 -107 142c-75 0 -119 -57 -119 -135c0 -94 46 -140 150 -140h76zM373 546c-37 0 -66 30 -66 68c0 37 29 68 66 68s66 -30 66 -68
c0 -37 -29 -68 -66 -68zM207 546c-37 0 -66 30 -66 68c0 37 29 68 66 68c38 0 67 -30 67 -68c0 -37 -29 -68 -67 -68z" />
    <glyph glyph-name="tehmarbuta.fina" unicode="&#x629;" horiz-adv-x="595" arabic-form="final" 
d="M610 0h-304c-195 0 -268 90 -268 232c0 131 81 251 265 251c118 0 209 -35 209 -35v-344h98v-104zM384 104v257s-38 18 -95 18c-75 0 -119 -57 -119 -135c0 -91 45 -140 150 -140h64zM373 546c-37 0 -66 30 -66 68c0 37 29 68 66 68s66 -30 66 -68c0 -37 -29 -68 -66 -68
zM207 546c-37 0 -66 30 -66 68c0 37 29 68 66 68c38 0 67 -30 67 -68c0 -37 -29 -68 -67 -68z" />
    <glyph glyph-name="teh.isol" unicode="&#x62a;" horiz-adv-x="773" arabic-form="isolated" 
d="M699 0h-282c-272 0 -367 113 -367 296c0 54 11 116 26 157l141 23c-21 -46 -34 -112 -34 -165c0 -141 61 -207 248 -207h136v366h132v-470zM485 546c-37 0 -66 30 -66 68c0 37 29 68 66 68s66 -30 66 -68c0 -37 -29 -68 -66 -68zM319 546c-37 0 -66 30 -66 68
c0 37 29 68 66 68c38 0 67 -30 67 -68c0 -37 -29 -68 -67 -68z" />
    <glyph glyph-name="teh.fina" unicode="&#x62a;" horiz-adv-x="782" arabic-form="final" 
d="M417 0c-272 0 -367 113 -367 296c0 54 11 116 26 157l141 23c-21 -46 -34 -112 -34 -165c0 -141 61 -207 248 -207h136v366h132v-366h99v-104h-381zM319 546c-37 0 -66 30 -66 68c0 37 29 68 66 68c38 0 67 -30 67 -68c0 -37 -29 -68 -67 -68zM485 546
c-37 0 -66 30 -66 68c0 37 29 68 66 68s66 -30 66 -68c0 -37 -29 -68 -66 -68z" />
    <glyph glyph-name="teh.init" unicode="&#x62a;" horiz-adv-x="346" arabic-form="initial" 
d="M0 0v104h140v366h132v-470h-272zM270 546c-37 0 -66 30 -66 68c0 37 29 68 66 68s66 -30 66 -68c0 -37 -29 -68 -66 -68zM104 546c-37 0 -66 30 -66 68c0 37 29 68 66 68c38 0 67 -30 67 -68c0 -37 -29 -68 -67 -68z" />
    <glyph glyph-name="teh.medi" unicode="&#x62a;" horiz-adv-x="346" arabic-form="medial" 
d="M0 0v104h140v366h132v-366h89v-104h-361zM104 546c-37 0 -66 30 -66 68c0 37 29 68 66 68c38 0 67 -30 67 -68c0 -37 -29 -68 -67 -68zM270 546c-37 0 -66 30 -66 68c0 37 29 68 66 68s66 -30 66 -68c0 -37 -29 -68 -66 -68z" />
    <glyph glyph-name="theh.isol" unicode="&#x62b;" horiz-adv-x="773" arabic-form="isolated" 
d="M699 0h-282c-272 0 -367 113 -367 296c0 54 11 116 26 157l141 23c-21 -46 -34 -112 -34 -165c0 -141 61 -207 248 -207h136v366h132v-470zM401 688c-34 0 -61 28 -61 63s27 63 61 63c35 0 62 -28 62 -63s-27 -63 -62 -63zM485 546c-38 0 -67 30 -67 68c0 37 29 68 67 68
c37 0 66 -30 66 -68c0 -37 -29 -68 -66 -68zM319 546c-37 0 -66 30 -66 68c0 37 29 68 66 68s66 -30 66 -68c0 -37 -29 -68 -66 -68z" />
    <glyph glyph-name="theh.fina" unicode="&#x62b;" horiz-adv-x="782" arabic-form="final" 
d="M417 0c-272 0 -367 113 -367 296c0 54 11 116 26 157l141 23c-21 -46 -34 -112 -34 -165c0 -141 61 -207 248 -207h136v366h132v-366h99v-104h-381zM485 546c-38 0 -67 30 -67 68c0 37 29 68 67 68c37 0 66 -30 66 -68c0 -37 -29 -68 -66 -68zM319 546
c-37 0 -66 30 -66 68c0 37 29 68 66 68s66 -30 66 -68c0 -37 -29 -68 -66 -68zM401 688c-34 0 -61 28 -61 63s27 63 61 63c35 0 62 -28 62 -63s-27 -63 -62 -63z" />
    <glyph glyph-name="theh.init" unicode="&#x62b;" horiz-adv-x="346" arabic-form="initial" 
d="M0 0v104h140v366h132v-470h-272zM186 688c-34 0 -61 28 -61 63s27 63 61 63c35 0 62 -28 62 -63s-27 -63 -62 -63zM270 546c-38 0 -67 30 -67 68c0 37 29 68 67 68c37 0 66 -30 66 -68c0 -37 -29 -68 -66 -68zM104 546c-37 0 -66 30 -66 68c0 37 29 68 66 68
s66 -30 66 -68c0 -37 -29 -68 -66 -68z" />
    <glyph glyph-name="theh.medi" unicode="&#x62b;" horiz-adv-x="355" arabic-form="medial" 
d="M0 0v104h140v366h132v-366h98v-104h-370zM270 546c-38 0 -67 30 -67 68c0 37 29 68 67 68c37 0 66 -30 66 -68c0 -37 -29 -68 -66 -68zM104 546c-37 0 -66 30 -66 68c0 37 29 68 66 68s66 -30 66 -68c0 -37 -29 -68 -66 -68zM186 688c-34 0 -61 28 -61 63s27 63 61 63
c35 0 62 -28 62 -63s-27 -63 -62 -63z" />
    <glyph glyph-name="jeem.isol" unicode="&#x62c;" horiz-adv-x="600" arabic-form="isolated" 
d="M396 -219c-38 0 -69 30 -69 69c0 38 31 69 69 69s69 -30 69 -69c0 -38 -31 -69 -69 -69zM517 0h-191c-149 0 -189 -49 -189 -110c0 -55 50 -106 166 -106l-9 -104c-196 0 -288 86 -288 202c0 126 96 222 324 222h68c3 24 5 51 5 76c0 127 -52 192 -195 192
c-42 0 -79 -3 -115 -8v103c38 5 84 9 128 9c224 0 313 -99 313 -291c0 -50 -5 -113 -17 -185z" />
    <glyph glyph-name="jeem.fina" unicode="&#x62c;" horiz-adv-x="593" arabic-form="final" 
d="M326 0c-149 0 -189 -49 -189 -110c0 -55 50 -106 166 -106l-9 -104c-196 0 -288 86 -288 202c0 126 96 222 324 222h68c3 24 5 51 5 76c0 127 -52 192 -195 192c-42 0 -79 -3 -115 -8v103c38 5 84 9 128 9c224 0 313 -99 313 -291c0 -24 -1 -52 -4 -81h79v-104h-283z
M396 -219c-38 0 -69 30 -69 69c0 38 31 69 69 69s69 -30 69 -69c0 -38 -31 -69 -69 -69z" />
    <glyph glyph-name="jeem.init" unicode="&#x62c;" horiz-adv-x="578" arabic-form="initial" 
d="M0 0v104h387c3 24 5 51 5 76c0 127 -52 192 -196 192c-41 0 -78 -3 -115 -8v103c39 5 85 9 128 9c225 0 314 -99 314 -291c0 -50 -5 -113 -17 -185h-506zM237 -219c-38 0 -69 30 -69 69c0 38 31 69 69 69s69 -30 69 -69c0 -38 -31 -69 -69 -69z" />
    <glyph glyph-name="jeem.medi" unicode="&#x62c;" horiz-adv-x="582" arabic-form="medial" 
d="M0 0v104h387c3 24 5 51 5 76c0 127 -52 192 -196 192c-41 0 -78 -3 -115 -8v103c39 5 85 9 128 9c225 0 314 -99 314 -291c0 -24 -1 -52 -4 -81h78v-104h-597zM237 -219c-38 0 -69 30 -69 69c0 38 31 69 69 69s69 -30 69 -69c0 -38 -31 -69 -69 -69z" />
    <glyph glyph-name="hah.isol" unicode="&#x62d;" horiz-adv-x="588" arabic-form="isolated" 
d="M304 -320c-196 0 -288 82 -288 203c0 125 96 221 324 221h57c3 24 5 51 5 76c0 127 -52 192 -196 192c-41 0 -78 -3 -115 -8v103c39 5 85 9 128 9c225 0 314 -99 314 -291c0 -50 -5 -113 -17 -185h-180c-149 0 -189 -49 -189 -108c0 -60 50 -108 170 -108
c54 0 109 6 171 18l9 -102c-63 -12 -130 -20 -193 -20z" />
    <glyph glyph-name="hah.fina" unicode="&#x62d;" horiz-adv-x="592" arabic-form="final" 
d="M336 0c-149 0 -189 -49 -189 -108c0 -60 50 -108 170 -108c54 0 109 6 171 18l9 -102c-63 -12 -130 -20 -193 -20c-196 0 -288 82 -288 203c0 125 96 221 324 221h57c3 24 5 51 5 76c0 127 -52 192 -196 192c-41 0 -78 -3 -115 -8v103c39 5 85 9 128 9
c225 0 314 -99 314 -291c0 -24 -1 -52 -4 -81h78v-104h-271z" />
    <glyph glyph-name="hah.init" unicode="&#x62d;" horiz-adv-x="578" arabic-form="initial" 
d="M0 0v104h387c3 24 5 51 5 76c0 127 -52 192 -196 192c-41 0 -78 -3 -115 -8v103c39 5 85 9 128 9c225 0 314 -99 314 -291c0 -50 -5 -113 -17 -185h-506z" />
    <glyph glyph-name="hah.medi" unicode="&#x62d;" horiz-adv-x="582" arabic-form="medial" 
d="M0 0v104h387c3 24 5 51 5 76c0 127 -52 192 -196 192c-41 0 -78 -3 -115 -8v103c39 5 85 9 128 9c225 0 314 -99 314 -291c0 -24 -1 -52 -4 -81h78v-104h-597z" />
    <glyph glyph-name="khah.isol" unicode="&#x62e;" horiz-adv-x="588" arabic-form="isolated" 
d="M304 -320c-196 0 -288 82 -288 203c0 125 96 221 324 221h57c3 24 5 51 5 76c0 127 -52 192 -196 192c-41 0 -78 -3 -115 -8v103c39 5 85 9 128 9c225 0 314 -99 314 -291c0 -50 -5 -113 -17 -185h-180c-149 0 -189 -49 -189 -108c0 -60 50 -108 170 -108
c54 0 109 6 171 18l9 -102c-63 -12 -130 -20 -193 -20zM247 554c-38 0 -69 30 -69 69c0 38 31 69 69 69s69 -31 69 -69s-31 -69 -69 -69z" />
    <glyph glyph-name="khah.fina" unicode="&#x62e;" horiz-adv-x="592" arabic-form="final" 
d="M336 0c-149 0 -189 -49 -189 -108c0 -60 50 -108 170 -108c54 0 109 6 171 18l9 -102c-63 -12 -130 -20 -193 -20c-196 0 -288 82 -288 203c0 125 96 221 324 221h57c3 24 5 51 5 76c0 127 -52 192 -196 192c-41 0 -78 -3 -115 -8v103c39 5 85 9 128 9
c225 0 314 -99 314 -291c0 -24 -1 -52 -4 -81h78v-104h-271zM247 554c-38 0 -69 30 -69 69c0 38 31 69 69 69s69 -31 69 -69s-31 -69 -69 -69z" />
    <glyph glyph-name="khah.init" unicode="&#x62e;" horiz-adv-x="578" arabic-form="initial" 
d="M0 0v104h387c3 24 5 51 5 76c0 127 -52 192 -196 192c-41 0 -78 -3 -115 -8v103c39 5 85 9 128 9c225 0 314 -99 314 -291c0 -50 -5 -113 -17 -185h-506zM237 554c-38 0 -69 30 -69 69c0 38 31 69 69 69s69 -31 69 -69s-31 -69 -69 -69z" />
    <glyph glyph-name="khah.medi" unicode="&#x62e;" horiz-adv-x="582" arabic-form="medial" 
d="M0 0v104h387c3 24 5 51 5 76c0 127 -52 192 -196 192c-41 0 -78 -3 -115 -8v103c39 5 85 9 128 9c225 0 314 -99 314 -291c0 -24 -1 -52 -4 -81h78v-104h-597zM237 554c-38 0 -69 30 -69 69c0 38 31 69 69 69s69 -31 69 -69s-31 -69 -69 -69z" />
    <glyph glyph-name="dal.isol" unicode="&#x62f;" horiz-adv-x="521" arabic-form="isolated" 
d="M46 0v104h297c-6 148 -79 240 -236 280l32 110c217 -57 333 -180 333 -428v-66h-426z" />
    <glyph glyph-name="dal.fina" unicode="&#x62f;" horiz-adv-x="521" arabic-form="final" 
d="M46 0v104h297c-6 148 -79 240 -236 280l32 110c205 -54 320 -167 332 -390h65v-104h-490z" />
    <glyph glyph-name="thal.isol" unicode="&#x630;" horiz-adv-x="521" arabic-form="isolated" 
d="M46 0v104h297c-6 148 -79 240 -236 280l32 110c217 -57 333 -180 333 -428v-66h-426zM198 554c-38 0 -69 30 -69 69c0 38 31 69 69 69s69 -31 69 -69s-31 -69 -69 -69z" />
    <glyph glyph-name="thal.fina" unicode="&#x630;" horiz-adv-x="521" arabic-form="final" 
d="M46 0v104h297c-6 148 -79 240 -236 280l32 110c205 -54 320 -167 332 -390h65v-104h-490zM198 554c-38 0 -69 30 -69 69c0 38 31 69 69 69s69 -31 69 -69s-31 -69 -69 -69z" />
    <glyph glyph-name="reh.isol" unicode="&#x631;" horiz-adv-x="396" arabic-form="isolated" 
d="M75 -254c-31 0 -59 4 -84 10l11 105c23 -7 49 -12 81 -12c67 0 107 32 107 140v481h132v-474c0 -128 -43 -250 -247 -250z" />
    <glyph glyph-name="reh.fina" unicode="&#x631;" horiz-adv-x="406" arabic-form="final" 
d="M75 -254c-31 0 -59 4 -84 10l11 105c23 -7 49 -12 81 -12c67 0 107 32 107 140v481h132v-366h99v-104h-99v-4c0 -128 -43 -250 -247 -250z" />
    <glyph glyph-name="zain.isol" unicode="&#x632;" horiz-adv-x="396" arabic-form="isolated" 
d="M75 -254c-31 0 -59 4 -84 10l11 105c23 -7 49 -12 81 -12c67 0 107 32 107 140v481h132v-474c0 -128 -43 -250 -247 -250zM256 554c-38 0 -69 30 -69 69c0 38 31 69 69 69s69 -31 69 -69s-31 -69 -69 -69z" />
    <glyph glyph-name="zain.fina" unicode="&#x632;" horiz-adv-x="406" arabic-form="final" 
d="M75 -254c-31 0 -59 4 -84 10l11 105c23 -7 49 -12 81 -12c67 0 107 32 107 140v481h132v-366h99v-104h-99v-4c0 -128 -43 -250 -247 -250zM256 554c-38 0 -69 30 -69 69c0 38 31 69 69 69s69 -31 69 -69s-31 -69 -69 -69z" />
    <glyph glyph-name="seen.isol" unicode="&#x633;" horiz-adv-x="1222" arabic-form="isolated" 
d="M311 -230c-160 0 -264 84 -264 284c0 58 8 121 24 179l136 25c-18 -64 -28 -131 -28 -192c0 -153 72 -193 142 -193c87 0 140 46 140 189v348h132v-197c0 -74 17 -116 76 -116c58 0 74 43 74 115v238h126v-235c0 -83 22 -111 110 -111h35c4 40 7 90 7 120
c0 100 -12 192 -29 268l129 18c19 -80 32 -178 32 -277c0 -73 -6 -162 -15 -233h-186c-87 0 -140 20 -162 74c-16 -52 -63 -82 -119 -82c-44 0 -73 16 -90 41c2 -7 4 -15 4 -24c0 -71 -34 -239 -274 -239z" />
    <glyph glyph-name="seen.fina" unicode="&#x633;" horiz-adv-x="1231" arabic-form="final" 
d="M311 -230c-160 0 -264 84 -264 284c0 58 8 121 24 179l136 25c-18 -64 -28 -131 -28 -192c0 -153 72 -193 142 -193c87 0 140 46 140 189v348h132v-197c0 -74 17 -116 76 -116c58 0 74 43 74 115v238h126v-235c0 -83 22 -111 110 -111h35c4 40 7 90 7 120
c0 100 -12 192 -29 268l129 18c19 -80 32 -178 32 -277c0 -40 -2 -85 -5 -129h98v-104h-294c-87 0 -140 20 -162 74c-16 -52 -63 -82 -119 -82c-44 0 -73 16 -90 41c2 -7 4 -15 4 -24c0 -71 -34 -239 -274 -239z" />
    <glyph glyph-name="seen.init" unicode="&#x633;" horiz-adv-x="883" arabic-form="initial" 
d="M0 0v104h32c65 0 90 26 90 125v181h132v-198c0 -75 17 -116 76 -116c58 0 74 43 74 115v239h126v-235c0 -83 22 -111 110 -111h35c4 40 7 89 7 120c0 100 -12 192 -29 268l129 18c19 -80 32 -178 32 -277c0 -73 -6 -162 -15 -233h-186c-87 0 -140 20 -162 74
c-24 -56 -82 -83 -145 -83c-73 0 -125 31 -142 83c-18 -48 -59 -74 -133 -74h-31z" />
    <glyph glyph-name="seen.medi" unicode="&#x633;" horiz-adv-x="892" arabic-form="medial" 
d="M0 0v104h32c65 0 90 26 90 125v181h132v-198c0 -75 17 -116 76 -116c58 0 74 43 74 115v239h126v-235c0 -83 22 -111 110 -111h35c4 40 7 89 7 120c0 100 -12 192 -29 268l129 18c19 -80 32 -178 32 -277c0 -40 -2 -85 -5 -129h98v-104h-294c-87 0 -140 20 -162 74
c-24 -56 -82 -83 -145 -83c-73 0 -125 31 -142 83c-18 -48 -59 -74 -133 -74h-31z" />
    <glyph glyph-name="sheen.isol" unicode="&#x634;" horiz-adv-x="1222" arabic-form="isolated" 
d="M311 -230c-160 0 -264 84 -264 284c0 58 8 121 24 179l136 25c-18 -64 -28 -131 -28 -192c0 -153 72 -193 142 -193c87 0 140 46 140 189v348h132v-197c0 -74 17 -116 76 -116c58 0 74 43 74 115v238h126v-235c0 -83 22 -111 110 -111h35c4 40 7 90 7 120
c0 100 -12 192 -29 268l129 18c19 -80 32 -178 32 -277c0 -73 -6 -162 -15 -233h-186c-87 0 -140 20 -162 74c-16 -52 -63 -82 -119 -82c-44 0 -73 16 -90 41c2 -7 4 -15 4 -24c0 -71 -34 -239 -274 -239zM800 688c-34 0 -61 28 -61 63s27 63 61 63c35 0 62 -28 62 -63
s-27 -63 -62 -63zM884 546c-38 0 -67 30 -67 68c0 37 29 68 67 68c37 0 66 -30 66 -68c0 -37 -29 -68 -66 -68zM718 546c-37 0 -66 30 -66 68c0 37 29 68 66 68s66 -30 66 -68c0 -37 -29 -68 -66 -68z" />
    <glyph glyph-name="sheen.fina" unicode="&#x634;" horiz-adv-x="1231" arabic-form="final" 
d="M952 0c-87 0 -140 20 -162 74c-16 -52 -63 -82 -119 -82c-44 0 -73 16 -90 41c2 -7 4 -15 4 -24c0 -71 -34 -239 -274 -239c-160 0 -264 84 -264 284c0 58 8 121 24 179l136 25c-18 -64 -28 -131 -28 -192c0 -153 72 -193 142 -193c87 0 140 46 140 189v348h132v-197
c0 -74 17 -116 76 -116c58 0 74 43 74 115v238h126v-235c0 -83 22 -111 110 -111h35c4 40 7 90 7 120c0 100 -12 192 -29 268l129 18c19 -80 32 -178 32 -277c0 -40 -2 -85 -5 -129h98v-104h-294zM884 546c-38 0 -67 30 -67 68c0 37 29 68 67 68c37 0 66 -30 66 -68
c0 -37 -29 -68 -66 -68zM718 546c-37 0 -66 30 -66 68c0 37 29 68 66 68s66 -30 66 -68c0 -37 -29 -68 -66 -68zM800 688c-34 0 -61 28 -61 63s27 63 61 63c35 0 62 -28 62 -63s-27 -63 -62 -63z" />
    <glyph glyph-name="sheen.init" unicode="&#x634;" horiz-adv-x="883" arabic-form="initial" 
d="M0 0v104h32c65 0 90 26 90 125v181h132v-198c0 -75 17 -116 76 -116c58 0 74 43 74 115v239h126v-235c0 -83 22 -111 110 -111h35c4 40 7 89 7 120c0 100 -12 192 -29 268l129 18c19 -80 32 -178 32 -277c0 -73 -6 -162 -15 -233h-186c-87 0 -140 20 -162 74
c-24 -56 -82 -83 -145 -83c-73 0 -125 31 -142 83c-18 -48 -59 -74 -133 -74h-31zM461 688c-34 0 -61 28 -61 63s27 63 61 63c35 0 62 -28 62 -63s-27 -63 -62 -63zM545 546c-38 0 -67 30 -67 68c0 37 29 68 67 68c37 0 66 -30 66 -68c0 -37 -29 -68 -66 -68zM379 546
c-37 0 -66 30 -66 68c0 37 29 68 66 68s66 -30 66 -68c0 -37 -29 -68 -66 -68z" />
    <glyph glyph-name="sheen.medi" unicode="&#x634;" horiz-adv-x="892" arabic-form="medial" 
d="M0 0v104h32c65 0 90 26 90 125v181h132v-198c0 -75 17 -116 76 -116c58 0 74 43 74 115v239h126v-235c0 -83 22 -111 110 -111h35c4 40 7 89 7 120c0 100 -12 192 -29 268l129 18c19 -80 32 -178 32 -277c0 -40 -2 -85 -5 -129h98v-104h-294c-87 0 -140 20 -162 74
c-24 -56 -82 -83 -145 -83c-73 0 -125 31 -142 83c-18 -48 -59 -74 -133 -74h-31zM545 546c-38 0 -67 30 -67 68c0 37 29 68 67 68c37 0 66 -30 66 -68c0 -37 -29 -68 -66 -68zM379 546c-37 0 -66 30 -66 68c0 37 29 68 66 68s66 -30 66 -68c0 -37 -29 -68 -66 -68zM461 688
c-34 0 -61 28 -61 63s27 63 61 63c35 0 62 -28 62 -63s-27 -63 -62 -63z" />
    <glyph glyph-name="sad.isol" unicode="&#x635;" horiz-adv-x="1107" arabic-form="isolated" 
d="M311 -230c-160 0 -264 84 -264 284c0 58 8 121 24 179l136 25c-18 -64 -28 -131 -28 -192c0 -153 72 -193 142 -193c87 0 140 46 140 189v408h132v-25c0 -44 -3 -100 -11 -148h1c49 118 150 186 257 186c138 0 203 -92 203 -242c0 -80 -4 -164 -14 -241h-442
c-17 -162 -124 -230 -276 -230zM592 104h311c3 40 5 86 5 123c0 93 -24 150 -95 150c-107 0 -196 -133 -221 -273z" />
    <glyph glyph-name="sad.fina" unicode="&#x635;" horiz-adv-x="1116" arabic-form="final" 
d="M587 0c-17 -162 -124 -230 -276 -230c-160 0 -264 84 -264 284c0 58 8 121 24 179l136 25c-18 -64 -28 -131 -28 -192c0 -153 72 -193 142 -193c87 0 140 46 140 189v408h132v-25c0 -44 -3 -100 -11 -148h1c49 118 150 186 257 186c138 0 203 -92 203 -242
c0 -45 -1 -92 -4 -137h92v-104h-544zM592 104h311c3 40 5 86 5 123c0 93 -24 150 -95 150c-107 0 -196 -133 -221 -273z" />
    <glyph glyph-name="sad.init" unicode="&#x635;" horiz-adv-x="768" arabic-form="initial" 
d="M704 241c0 -80 -4 -164 -14 -241h-690v104h122v366h132v-25c0 -44 -3 -100 -11 -148h1c49 118 150 186 257 186c138 0 203 -92 203 -242zM569 226c0 94 -24 151 -95 151c-107 0 -196 -133 -221 -273h311c3 40 5 86 5 122z" />
    <glyph glyph-name="sad.medi" unicode="&#x635;" horiz-adv-x="777" arabic-form="medial" 
d="M704 241c0 -45 -1 -92 -4 -137h92v-104h-792v104h122v366h132v-25c0 -44 -3 -100 -11 -148h1c49 118 150 186 257 186c138 0 203 -92 203 -242zM569 226c0 94 -24 151 -95 151c-107 0 -196 -133 -221 -273h311c3 40 5 86 5 122z" />
    <glyph glyph-name="dad.isol" unicode="&#x636;" horiz-adv-x="1107" arabic-form="isolated" 
d="M311 -230c-160 0 -264 84 -264 284c0 58 8 121 24 179l136 25c-18 -64 -28 -131 -28 -192c0 -153 72 -193 142 -193c87 0 140 46 140 189v408h132v-25c0 -44 -3 -100 -11 -148h1c49 118 150 186 257 186c138 0 203 -92 203 -242c0 -80 -4 -164 -14 -241h-442
c-17 -162 -124 -230 -276 -230zM592 104h311c3 40 5 86 5 123c0 93 -24 150 -95 150c-107 0 -196 -133 -221 -273zM822 554c-38 0 -69 30 -69 69c0 38 31 69 69 69s69 -31 69 -69s-31 -69 -69 -69z" />
    <glyph glyph-name="dad.fina" unicode="&#x636;" horiz-adv-x="1116" arabic-form="final" 
d="M311 -230c-160 0 -264 84 -264 284c0 58 8 121 24 179l136 25c-18 -64 -28 -131 -28 -192c0 -153 72 -193 142 -193c87 0 140 46 140 189v408h132v-25c0 -44 -3 -100 -11 -148h1c49 118 150 186 257 186c138 0 203 -92 203 -242c0 -45 -1 -92 -4 -137h92v-104h-544
c-17 -162 -124 -230 -276 -230zM592 104h311c3 40 5 86 5 123c0 93 -24 150 -95 150c-107 0 -196 -133 -221 -273zM822 554c-38 0 -69 30 -69 69c0 38 31 69 69 69s69 -31 69 -69s-31 -69 -69 -69z" />
    <glyph glyph-name="dad.init" unicode="&#x636;" horiz-adv-x="768" arabic-form="initial" 
d="M704 241c0 -80 -4 -164 -14 -241h-690v104h122v366h132v-25c0 -44 -3 -100 -11 -148h1c49 118 150 186 257 186c138 0 203 -92 203 -242zM569 226c0 94 -24 151 -95 151c-107 0 -196 -133 -221 -273h311c3 40 5 86 5 122zM484 554c-38 0 -69 30 -69 69c0 38 31 69 69 69
s69 -31 69 -69s-31 -69 -69 -69z" />
    <glyph glyph-name="dad.medi" unicode="&#x636;" horiz-adv-x="777" arabic-form="medial" 
d="M0 0v104h122v366h132v-25c0 -44 -3 -100 -11 -148h1c49 118 150 186 257 186c138 0 203 -92 203 -242c0 -45 -1 -92 -4 -137h92v-104h-792zM569 226c0 94 -24 151 -95 151c-107 0 -196 -133 -221 -273h311c3 40 5 86 5 122zM484 554c-38 0 -69 30 -69 69
c0 38 31 69 69 69s69 -31 69 -69s-31 -69 -69 -69z" />
    <glyph glyph-name="tah.isol" unicode="&#x637;" horiz-adv-x="768" arabic-form="isolated" 
d="M0 0v104h122v601h132v-260c0 -44 -3 -100 -11 -148h1c49 118 150 186 257 186c138 0 203 -92 203 -242c0 -80 -4 -164 -14 -241h-690zM253 104h311c3 40 5 86 5 122c0 94 -24 151 -95 151c-107 0 -196 -133 -221 -273z" />
    <glyph glyph-name="tah.fina" unicode="&#x637;" horiz-adv-x="777" arabic-form="final" 
d="M0 0v104h122v601h132v-260c0 -44 -3 -100 -11 -148h1c49 118 150 186 257 186c138 0 203 -92 203 -242c0 -45 -1 -92 -4 -137h92v-104h-792zM253 104h311c3 40 5 86 5 122c0 94 -24 151 -95 151c-107 0 -196 -133 -221 -273z" />
    <glyph glyph-name="tah.init" unicode="&#x637;" horiz-adv-x="768" arabic-form="initial" 
d="M0 0v104h122v601h132v-260c0 -44 -3 -100 -11 -148h1c49 118 150 186 257 186c138 0 203 -92 203 -242c0 -80 -4 -164 -14 -241h-690zM253 104h311c3 40 5 86 5 122c0 94 -24 151 -95 151c-107 0 -196 -133 -221 -273z" />
    <glyph glyph-name="tah.medi" unicode="&#x637;" horiz-adv-x="777" arabic-form="medial" 
d="M0 0v104h122v601h132v-260c0 -44 -3 -100 -11 -148h1c49 118 150 186 257 186c138 0 203 -92 203 -242c0 -45 -1 -92 -4 -137h92v-104h-792zM253 104h311c3 40 5 86 5 122c0 94 -24 151 -95 151c-107 0 -196 -133 -221 -273z" />
    <glyph glyph-name="zah.isol" unicode="&#x638;" horiz-adv-x="768" arabic-form="isolated" 
d="M0 0v104h122v601h132v-260c0 -44 -3 -100 -11 -148h1c49 118 150 186 257 186c138 0 203 -92 203 -242c0 -80 -4 -164 -14 -241h-690zM253 104h311c3 40 5 86 5 122c0 94 -24 151 -95 151c-107 0 -196 -133 -221 -273zM484 554c-38 0 -69 30 -69 69c0 38 31 69 69 69
s69 -31 69 -69s-31 -69 -69 -69z" />
    <glyph glyph-name="zah.fina" unicode="&#x638;" horiz-adv-x="777" arabic-form="final" 
d="M0 0v104h122v601h132v-260c0 -44 -3 -100 -11 -148h1c49 118 150 186 257 186c138 0 203 -92 203 -242c0 -45 -1 -92 -4 -137h92v-104h-792zM253 104h311c3 40 5 86 5 122c0 94 -24 151 -95 151c-107 0 -196 -133 -221 -273zM484 554c-38 0 -69 30 -69 69
c0 38 31 69 69 69s69 -31 69 -69s-31 -69 -69 -69z" />
    <glyph glyph-name="zah.init" unicode="&#x638;" horiz-adv-x="768" arabic-form="initial" 
d="M0 0v104h122v601h132v-260c0 -44 -3 -100 -11 -148h1c49 118 150 186 257 186c138 0 203 -92 203 -242c0 -80 -4 -164 -14 -241h-690zM253 104h311c3 40 5 86 5 122c0 94 -24 151 -95 151c-107 0 -196 -133 -221 -273zM484 554c-38 0 -69 30 -69 69c0 38 31 69 69 69
s69 -31 69 -69s-31 -69 -69 -69z" />
    <glyph glyph-name="zah.medi" unicode="&#x638;" horiz-adv-x="777" arabic-form="medial" 
d="M0 0v104h122v601h132v-260c0 -44 -3 -100 -11 -148h1c49 118 150 186 257 186c138 0 203 -92 203 -242c0 -45 -1 -92 -4 -137h92v-104h-792zM253 104h311c3 40 5 86 5 122c0 94 -24 151 -95 151c-107 0 -196 -133 -221 -273zM484 554c-38 0 -69 30 -69 69
c0 38 31 69 69 69s69 -31 69 -69s-31 -69 -69 -69z" />
    <glyph glyph-name="ain.isol" unicode="&#x639;" horiz-adv-x="494" arabic-form="isolated" 
d="M289 -320c-196 0 -280 86 -280 204c0 90 53 157 153 181c-63 26 -113 90 -113 180c0 141 93 238 267 238c60 0 112 -13 112 -13l-22 -104s-41 14 -93 14c-82 0 -130 -52 -130 -132c0 -79 57 -144 192 -144h70v-104h-123c-145 0 -178 -55 -178 -111
c0 -61 51 -105 161 -105c76 0 149 14 149 14l7 -102s-81 -16 -172 -16z" />
    <glyph glyph-name="ain.fina" unicode="&#x639;" horiz-adv-x="629" arabic-form="final" 
d="M312 -255c-202 0 -283 80 -283 176c0 122 119 175 229 224c-60 57 -118 113 -200 136l11 94c79 57 190 111 289 111c149 0 211 -77 211 -164c0 -85 -50 -142 -114 -186c36 -19 76 -32 123 -32h66v-104h-81c-96 0 -165 31 -222 74c-92 -45 -177 -80 -177 -140
c0 -49 40 -86 163 -86c77 0 150 13 150 13l8 -100s-87 -16 -173 -16zM191 329c65 -26 118 -80 174 -129c43 28 73 60 73 105c0 47 -31 84 -95 84c-54 0 -116 -36 -152 -60z" />
    <glyph glyph-name="ain.init" unicode="&#x639;" horiz-adv-x="549" arabic-form="initial" 
d="M0 0v104h153c-44 26 -78 82 -78 149c0 124 85 230 262 230c67 0 124 -19 124 -19l-23 -105s-46 21 -104 21c-75 0 -126 -50 -126 -127c0 -85 69 -149 227 -149h78v-104h-513z" />
    <glyph glyph-name="ain.medi" unicode="&#x639;" horiz-adv-x="629" arabic-form="medial" 
d="M0 0v104h35c95 0 172 11 233 31c-64 60 -123 122 -210 146l11 94c79 57 190 111 289 111c149 0 211 -77 211 -164c0 -67 -35 -136 -102 -192c33 -16 69 -26 111 -26h66v-104h-81c-87 0 -152 26 -206 62c-85 -38 -196 -62 -330 -62h-27zM191 329c69 -28 124 -87 185 -138
c42 33 62 73 62 114c0 47 -31 84 -95 84c-54 0 -116 -36 -152 -60z" />
    <glyph glyph-name="ghain.isol" unicode="&#x63a;" horiz-adv-x="494" arabic-form="isolated" 
d="M289 -320c-196 0 -280 86 -280 204c0 90 53 157 153 181c-63 26 -113 90 -113 180c0 141 93 238 267 238c60 0 112 -13 112 -13l-22 -104s-41 14 -93 14c-82 0 -130 -52 -130 -132c0 -79 57 -144 192 -144h70v-104h-123c-145 0 -178 -55 -178 -111
c0 -61 51 -105 161 -105c76 0 149 14 149 14l7 -102s-81 -16 -172 -16zM274 560c-38 0 -69 30 -69 69c0 38 31 69 69 69s69 -31 69 -69s-31 -69 -69 -69z" />
    <glyph glyph-name="ghain.fina" unicode="&#x63a;" horiz-adv-x="629" arabic-form="final" 
d="M312 -255c-202 0 -283 80 -283 176c0 122 119 175 229 224c-60 57 -118 113 -200 136l11 94c79 57 190 111 289 111c149 0 211 -77 211 -164c0 -85 -50 -142 -114 -186c36 -19 76 -32 123 -32h66v-104h-81c-96 0 -165 31 -222 74c-92 -45 -177 -80 -177 -140
c0 -49 40 -86 163 -86c77 0 150 13 150 13l8 -100s-87 -16 -173 -16zM191 329c65 -26 118 -80 174 -129c43 28 73 60 73 105c0 47 -31 84 -95 84c-54 0 -116 -36 -152 -60zM342 560c-38 0 -69 30 -69 69c0 38 31 69 69 69s69 -31 69 -69s-31 -69 -69 -69z" />
    <glyph glyph-name="ghain.init" unicode="&#x63a;" horiz-adv-x="549" arabic-form="initial" 
d="M0 0v104h153c-44 26 -78 82 -78 149c0 124 85 230 262 230c67 0 124 -19 124 -19l-23 -105s-46 21 -104 21c-75 0 -126 -50 -126 -127c0 -85 69 -149 227 -149h78v-104h-513zM309 554c-38 0 -69 30 -69 69c0 38 31 69 69 69s69 -31 69 -69s-31 -69 -69 -69z" />
    <glyph glyph-name="ghain.medi" unicode="&#x63a;" horiz-adv-x="629" arabic-form="medial" 
d="M0 0v104h35c95 0 172 11 233 31c-64 60 -123 122 -210 146l11 94c79 57 190 111 289 111c149 0 211 -77 211 -164c0 -67 -35 -136 -102 -192c33 -16 69 -26 111 -26h66v-104h-81c-87 0 -152 26 -206 62c-85 -38 -196 -62 -330 -62h-27zM191 329c69 -28 124 -87 185 -138
c42 33 62 73 62 114c0 47 -31 84 -95 84c-54 0 -116 -36 -152 -60zM342 560c-38 0 -69 30 -69 69c0 38 31 69 69 69s69 -31 69 -69s-31 -69 -69 -69z" />
    <glyph glyph-name="feh.isol" unicode="&#x641;" horiz-adv-x="926" arabic-form="isolated" 
d="M643 558c-38 0 -69 30 -69 69c0 38 31 69 69 69s69 -31 69 -69s-31 -69 -69 -69zM885 250c0 -146 -106 -250 -255 -250h-213c-272 0 -367 113 -367 296c0 54 11 116 26 157l141 23c-21 -46 -34 -112 -34 -165c0 -141 65 -207 226 -207h33c-29 27 -44 75 -44 130
c0 144 103 249 254 249c142 0 233 -74 233 -233zM752 243c0 88 -34 136 -109 136c-57 0 -113 -40 -113 -134s37 -141 111 -141c63 0 111 46 111 139z" />
    <glyph glyph-name="feh.fina" unicode="&#x641;" horiz-adv-x="941" arabic-form="final" 
d="M956 104v-104h-539c-272 0 -367 113 -367 296c0 54 11 116 26 157l141 23c-21 -46 -34 -112 -34 -165c0 -141 65 -207 226 -207h33c-29 27 -44 75 -44 130c0 144 103 249 254 249c142 0 233 -74 233 -233c0 -58 -20 -119 -58 -151c0 0 42 5 76 5h53zM752 243
c0 88 -34 136 -109 136c-57 0 -113 -40 -113 -134s37 -141 111 -141c63 0 111 46 111 139zM643 558c-38 0 -69 30 -69 69c0 38 31 69 69 69s69 -31 69 -69s-31 -69 -69 -69z" />
    <glyph glyph-name="feh.init" unicode="&#x641;" horiz-adv-x="612" arabic-form="initial" 
d="M304 558c-38 0 -69 30 -69 69c0 38 31 69 69 69s69 -31 69 -69s-31 -69 -69 -69zM543 0h-543v104h57c35 0 56 -7 56 -7c-37 27 -56 72 -56 143c0 127 86 243 260 243c156 0 226 -90 226 -230v-253zM414 104v133c0 100 -40 142 -107 142c-75 0 -119 -57 -119 -135
c0 -94 46 -140 150 -140h76z" />
    <glyph glyph-name="feh.medi" unicode="&#x641;" horiz-adv-x="600" arabic-form="medial" 
d="M302 558c-38 0 -69 30 -69 69c0 38 31 69 69 69s69 -31 69 -69s-31 -69 -69 -69zM0 0v104h42c31 0 61 -5 61 -5c-30 31 -46 78 -46 135c0 144 103 249 254 249c142 0 233 -74 233 -233c0 -58 -20 -119 -58 -151c0 0 42 5 76 5h53v-104h-615zM300 104c63 0 111 46 111 139
c0 88 -34 136 -109 136c-57 0 -113 -40 -113 -134s37 -141 111 -141z" />
    <glyph glyph-name="qaf.isol" unicode="&#x642;" horiz-adv-x="884" arabic-form="isolated" 
d="M810 448v-687s-194 -11 -323 -11c-316 0 -440 98 -440 306c0 56 8 119 24 177l136 25c-18 -64 -28 -131 -28 -189c0 -154 78 -216 327 -216c88 0 175 6 175 6v141h-78c-195 0 -267 90 -267 232c0 131 80 251 264 251c119 0 210 -35 210 -35zM681 104v257s-38 18 -94 18
c-75 0 -120 -57 -120 -135c0 -91 46 -140 150 -140h64zM671 546c-37 0 -66 30 -66 68c0 37 29 68 66 68s66 -30 66 -68c0 -37 -29 -68 -66 -68zM505 546c-37 0 -66 30 -66 68c0 37 29 68 66 68c38 0 67 -30 67 -68c0 -37 -29 -68 -67 -68z" />
    <glyph glyph-name="qaf.fina" unicode="&#x642;" horiz-adv-x="893" arabic-form="final" 
d="M810 448v-344h98v-104h-98v-239s-194 -11 -323 -11c-316 0 -440 98 -440 306c0 56 8 119 24 177l136 25c-18 -64 -28 -131 -28 -189c0 -154 78 -216 327 -216c88 0 175 6 175 6v141h-78c-195 0 -267 90 -267 232c0 131 80 251 264 251c119 0 210 -35 210 -35zM681 104
v257s-38 18 -94 18c-75 0 -120 -57 -120 -135c0 -91 46 -140 150 -140h64zM505 546c-37 0 -66 30 -66 68c0 37 29 68 66 68c38 0 67 -30 67 -68c0 -37 -29 -68 -67 -68zM671 546c-37 0 -66 30 -66 68c0 37 29 68 66 68s66 -30 66 -68c0 -37 -29 -68 -66 -68z" />
    <glyph glyph-name="qaf.init" unicode="&#x642;" horiz-adv-x="612" arabic-form="initial" 
d="M387 546c-37 0 -66 30 -66 68c0 37 29 68 66 68s66 -30 66 -68c0 -37 -29 -68 -66 -68zM221 546c-37 0 -66 30 -66 68c0 37 29 68 66 68c38 0 67 -30 67 -68c0 -37 -29 -68 -67 -68zM543 0h-543v104h57c35 0 56 -7 56 -7c-37 27 -56 72 -56 143c0 127 86 243 260 243
c156 0 226 -90 226 -230v-253zM414 104v133c0 100 -40 142 -107 142c-75 0 -119 -57 -119 -135c0 -94 46 -140 150 -140h76z" />
    <glyph glyph-name="qaf.medi" unicode="&#x642;" horiz-adv-x="600" arabic-form="medial" 
d="M386 546c-37 0 -66 30 -66 68c0 37 29 68 66 68s66 -30 66 -68c0 -37 -29 -68 -66 -68zM220 546c-37 0 -66 30 -66 68c0 37 29 68 66 68c38 0 67 -30 67 -68c0 -37 -29 -68 -67 -68zM0 0v104h42c31 0 61 -5 61 -5c-30 31 -46 78 -46 135c0 144 103 249 254 249
c142 0 233 -74 233 -233c0 -58 -20 -119 -58 -151c0 0 42 5 76 5h53v-104h-615zM300 104c63 0 111 46 111 139c0 88 -34 136 -109 136c-57 0 -113 -40 -113 -134s37 -141 111 -141z" />
    <glyph glyph-name="kaf.isol" unicode="&#x643;" horiz-adv-x="857" arabic-form="isolated" 
d="M417 0c-272 0 -367 113 -367 296c0 54 11 116 26 157l141 23c-21 -46 -34 -112 -34 -165c0 -141 61 -207 248 -207h209v601h132v-705h-355zM302 412v75c21 0 42 -1 56 -4c-12 6 -19 24 -19 39c0 56 40 112 145 112c27 0 52 -4 59 -5l-12 -75c-5 1 -27 5 -50 5
c-31 0 -48 -14 -48 -34c0 -22 18 -38 69 -38h57v-75h-257z" />
    <glyph glyph-name="kaf.fina" unicode="&#x643;" horiz-adv-x="857" arabic-form="final" 
d="M417 0c-272 0 -367 113 -367 296c0 54 11 116 26 157l141 23c-21 -46 -34 -112 -34 -165c0 -141 61 -207 248 -207h209v601h132v-601h101v-104h-456zM302 412v75c21 0 42 -1 56 -4c-12 6 -19 24 -19 39c0 56 40 112 145 112c27 0 52 -4 59 -5l-12 -75c-5 1 -27 5 -50 5
c-31 0 -48 -14 -48 -34c0 -22 18 -38 69 -38h57v-75h-257z" />
    <glyph glyph-name="kaf.init" unicode="&#x643;" horiz-adv-x="491" arabic-form="initial" 
d="M0 0v104h297c-6 155 -86 245 -245 282v97l396 248v-131l-244 -147c134 -60 222 -169 222 -386v-67h-426z" />
    <glyph glyph-name="kaf.medi" unicode="&#x643;" horiz-adv-x="491" arabic-form="medial" 
d="M0 0v104h297c-6 155 -86 245 -245 282v97l396 248v-131l-244 -147c126 -57 211 -157 221 -349h81v-104h-506z" />
    <glyph glyph-name="lam.isol" unicode="&#x644;" horiz-adv-x="652" arabic-form="isolated" 
d="M441 66v639h132v-629c0 -210 -99 -306 -268 -306c-160 0 -258 84 -258 284c0 58 8 121 24 179l136 25c-18 -64 -28 -131 -28 -192c0 -153 67 -193 137 -193c73 0 125 46 125 193z" />
    <glyph glyph-name="lam.fina" unicode="&#x644;" horiz-adv-x="652" arabic-form="final" 
d="M441 66v639h132v-601h95v-104h-100c-22 -157 -116 -230 -263 -230c-160 0 -258 84 -258 284c0 58 8 121 24 179l136 25c-18 -64 -28 -131 -28 -192c0 -153 67 -193 137 -193c73 0 125 46 125 193z" />
    <glyph glyph-name="lam.init" unicode="&#x644;" horiz-adv-x="341" arabic-form="initial" 
d="M0 0v104h124v601h132v-705h-256z" />
    <glyph glyph-name="lam.medi" unicode="&#x644;" horiz-adv-x="341" arabic-form="medial" 
d="M0 0v104h124v601h132v-601h101v-104h-357z" />
    <glyph glyph-name="meem.isol" unicode="&#x645;" horiz-adv-x="806" arabic-form="isolated" 
d="M737 0h-219c-178 0 -254 74 -267 194h-20c-57 0 -74 -33 -59 -127l52 -327h-127l-51 317c-22 142 29 241 189 241h22c25 105 109 185 254 185c156 0 226 -90 226 -230v-253zM608 104v133c0 100 -40 142 -107 142c-75 0 -119 -57 -119 -135c0 -94 46 -140 150 -140h76z
" />
    <glyph glyph-name="meem.fina" unicode="&#x645;" horiz-adv-x="806" arabic-form="final" 
d="M518 0c-178 0 -254 74 -267 194h-20c-57 0 -74 -33 -59 -127l52 -327h-127l-51 317c-22 142 29 241 189 241h22c25 105 109 185 254 185c156 0 226 -90 226 -230v-149h84v-104h-303zM608 104v133c0 100 -40 142 -107 142c-75 0 -119 -57 -119 -135
c0 -94 46 -140 150 -140h76z" />
    <glyph glyph-name="meem.init" unicode="&#x645;" horiz-adv-x="650" arabic-form="initial" 
d="M581 0h-228c-118 0 -176 28 -206 77c-25 -52 -72 -77 -132 -77h-15v104h20c48 0 75 29 75 120c0 143 87 259 255 259c161 0 231 -92 231 -238v-245zM452 104v126c0 105 -38 149 -111 149s-116 -58 -116 -143c0 -88 38 -132 141 -132h86z" />
    <glyph glyph-name="meem.medi" unicode="&#x645;" horiz-adv-x="650" arabic-form="medial" 
d="M353 0c-118 0 -176 28 -206 77c-25 -52 -72 -77 -132 -77h-15v104h20c48 0 75 29 75 120c0 143 87 259 255 259c161 0 231 -92 231 -238v-141h85v-104h-313zM452 104v126c0 105 -38 149 -111 149s-116 -58 -116 -143c0 -88 38 -132 141 -132h86z" />
    <glyph glyph-name="noon.isol" unicode="&#x646;" horiz-adv-x="667" arabic-form="isolated" 
d="M593 470v-399c0 -200 -91 -301 -282 -301c-160 0 -264 84 -264 284c0 58 8 121 24 179l136 25c-18 -64 -28 -131 -28 -192c0 -153 72 -193 142 -193c87 0 140 46 140 190v407h132zM311 345c-38 0 -69 30 -69 69c0 38 31 69 69 69s69 -31 69 -69s-31 -69 -69 -69z" />
    <glyph glyph-name="noon.fina" unicode="&#x646;" horiz-adv-x="677" arabic-form="final" 
d="M593 470v-366h99v-104h-104c-20 -153 -110 -230 -277 -230c-160 0 -264 84 -264 284c0 58 8 121 24 179l136 25c-18 -64 -28 -131 -28 -192c0 -153 72 -193 142 -193c87 0 140 46 140 190v407h132zM311 345c-38 0 -69 30 -69 69c0 38 31 69 69 69s69 -31 69 -69
s-31 -69 -69 -69z" />
    <glyph glyph-name="noon.init" unicode="&#x646;" horiz-adv-x="346" arabic-form="initial" 
d="M0 0v104h140v366h132v-470h-272zM206 554c-38 0 -69 30 -69 69c0 38 31 69 69 69s69 -31 69 -69s-31 -69 -69 -69z" />
    <glyph glyph-name="noon.medi" unicode="&#x646;" horiz-adv-x="355" arabic-form="medial" 
d="M0 0v104h140v366h132v-366h98v-104h-370zM206 554c-38 0 -69 30 -69 69c0 38 31 69 69 69s69 -31 69 -69s-31 -69 -69 -69z" />
    <glyph glyph-name="heh.isol" unicode="&#x647;" horiz-adv-x="594" arabic-form="isolated" 
d="M525 0h-219c-195 0 -268 90 -268 231c0 136 87 252 261 252c156 0 226 -90 226 -230v-253zM396 104v133c0 100 -40 142 -107 142c-75 0 -119 -57 -119 -135c0 -94 46 -140 150 -140h76z" />
    <glyph glyph-name="heh.fina" unicode="&#x647;" horiz-adv-x="595" arabic-form="final" 
d="M610 0h-304c-195 0 -268 90 -268 232c0 131 81 251 265 251c118 0 209 -35 209 -35v-344h98v-104zM384 104v257s-38 18 -95 18c-75 0 -119 -57 -119 -135c0 -91 45 -140 150 -140h64z" />
    <glyph glyph-name="heh.init" unicode="&#x647;" horiz-adv-x="766" arabic-form="initial" 
d="M707 0h-707v104h85c27 0 45 -5 45 -5s-26 26 -26 67c0 95 69 169 189 169c131 0 183 -89 183 -205v-26h105v12c0 207 -84 308 -283 308c-68 0 -150 -16 -214 -37l-12 93c71 23 163 39 242 39c250 0 393 -120 393 -412v-107zM369 100v31c0 71 -27 121 -85 121
c-46 0 -72 -32 -72 -72c0 -52 42 -80 94 -80h63z" />
    <glyph glyph-name="heh.medi" unicode="&#x647;" horiz-adv-x="766" arabic-form="medial" 
d="M782 0h-782v104h85c27 0 45 -5 45 -5s-26 26 -26 67c0 95 69 169 189 169c131 0 183 -89 183 -205v-26h105v12c0 207 -84 308 -283 308c-68 0 -150 -16 -214 -37l-12 93c71 23 163 39 242 39c250 0 393 -120 393 -412v-3h75v-104zM369 100v31c0 71 -27 121 -85 121
c-46 0 -72 -32 -72 -72c0 -52 42 -80 94 -80h63z" />
    <glyph glyph-name="waw.isol" unicode="&#x648;" horiz-adv-x="586" arabic-form="isolated" 
d="M199 -252c-75 0 -152 13 -152 13l8 108s78 -17 156 -17c104 0 173 39 173 133v15h-78c-195 0 -268 90 -268 232c0 131 81 251 265 251c118 0 209 -35 209 -35v-450c0 -138 -89 -250 -313 -250zM384 104v257s-38 18 -95 18c-75 0 -119 -57 -119 -135
c0 -91 45 -140 150 -140h64z" />
    <glyph glyph-name="waw.fina" unicode="&#x648;" horiz-adv-x="595" arabic-form="final" 
d="M199 -252c-75 0 -152 13 -152 13l8 108s78 -17 156 -17c104 0 173 39 173 133v15h-78c-195 0 -268 90 -268 232c0 131 81 251 265 251c118 0 209 -35 209 -35v-344h99v-104h-99v-2c0 -138 -89 -250 -313 -250zM384 104v257s-38 18 -95 18c-75 0 -119 -57 -119 -135
c0 -91 45 -140 150 -140h64z" />
    <glyph glyph-name="alefmaksura.isol" unicode="&#x649;" horiz-adv-x="1000" arabic-form="isolated" 
d="M626 0h-209c-272 0 -367 113 -367 296c0 54 11 116 26 157l141 23c-21 -46 -34 -112 -34 -165c0 -141 61 -207 248 -207h68v360s93 19 201 19c176 0 231 -84 231 -221v-126h-128v112c0 96 -28 131 -111 131c-33 0 -66 -6 -66 -6v-373z" />
    <glyph glyph-name="alefmaksura.fina" unicode="&#x649;" horiz-adv-x="1000" arabic-form="final" 
d="M626 0h-209c-272 0 -367 113 -367 296c0 54 11 116 26 157l141 23c-21 -46 -34 -112 -34 -165c0 -141 61 -207 248 -207h68v360s93 19 201 19c176 0 231 -84 231 -221v-158h84v-104h-212v248c0 96 -28 131 -111 131c-33 0 -66 -6 -66 -6v-373z" />
    <glyph glyph-name="yeh.isol" unicode="&#x64a;" horiz-adv-x="1000" arabic-form="isolated" 
d="M626 0h-209c-272 0 -367 113 -367 296c0 54 11 116 26 157l141 23c-21 -46 -34 -112 -34 -165c0 -141 61 -207 248 -207h68v360s93 19 201 19c176 0 231 -84 231 -221v-126h-128v112c0 96 -28 131 -111 131c-33 0 -66 -6 -66 -6v-373zM541 -150c0 -37 -29 -68 -66 -68
s-66 30 -66 68c0 37 29 68 66 68s66 -30 66 -68zM376 -150c0 -37 -29 -68 -67 -68c-37 0 -66 30 -66 68c0 37 29 68 66 68c38 0 67 -30 67 -68z" />
    <glyph glyph-name="yeh.fina" unicode="&#x64a;" horiz-adv-x="1000" arabic-form="final" 
d="M626 0h-209c-272 0 -367 113 -367 296c0 54 11 116 26 157l141 23c-21 -46 -34 -112 -34 -165c0 -141 61 -207 248 -207h68v360s93 19 201 19c176 0 231 -84 231 -221v-158h84v-104h-212v248c0 96 -28 131 -111 131c-33 0 -66 -6 -66 -6v-373zM541 -150
c0 -37 -29 -68 -66 -68s-66 30 -66 68c0 37 29 68 66 68s66 -30 66 -68zM376 -150c0 -37 -29 -68 -67 -68c-37 0 -66 30 -66 68c0 37 29 68 66 68c38 0 67 -30 67 -68z" />
    <glyph glyph-name="yeh.init" unicode="&#x64a;" horiz-adv-x="394" arabic-form="initial" 
d="M317 -150c0 -37 -29 -68 -66 -68s-66 30 -66 68c0 37 29 68 66 68s66 -30 66 -68zM152 -150c0 -37 -29 -68 -67 -68c-37 0 -66 30 -66 68c0 37 29 68 66 68c38 0 67 -30 67 -68zM0 0v104h188v366h132v-470h-320z" />
    <glyph glyph-name="yeh.medi" unicode="&#x64a;" horiz-adv-x="403" arabic-form="medial" 
d="M0 0v104h188v366h132v-366h99v-104h-419zM152 -150c0 -37 -29 -68 -67 -68c-37 0 -66 30 -66 68c0 37 29 68 66 68c38 0 67 -30 67 -68zM317 -150c0 -37 -29 -68 -66 -68s-66 30 -66 68c0 37 29 68 66 68s66 -30 66 -68z" />
    <glyph glyph-name="fathatan" unicode="&#xfe70;" horiz-adv-x="0" arabic-form="isolated" 
d="M-112 0v64l224 32v-64zM-111 105v64l224 32v-64z" />
    <glyph glyph-name="dammatan" unicode="&#xfe72;" horiz-adv-x="0" arabic-form="isolated" 
d="M-119 0l-31 147l57 13l21 -95l45 10s-6 20 -6 38c0 55 45 96 100 96c56 0 84 -36 84 -78c0 -51 -36 -81 -89 -93zM31 87l26 6c20 3 34 17 34 35c0 15 -10 26 -28 26c-22 0 -38 -17 -37 -39c0 -13 5 -28 5 -28z" />
    <glyph glyph-name="kasratan" unicode="&#xfe74;" horiz-adv-x="0" arabic-form="isolated" 
d="M-112 -201v64l224 32v-64zM-111 -96v64l224 32v-64z" />
    <glyph glyph-name="fatha" unicode="&#xfe76;" horiz-adv-x="0" arabic-form="isolated" 
d="M-112 0v71l224 32v-71z" />
    <glyph glyph-name="damma" unicode="&#xfe78;" horiz-adv-x="0" arabic-form="isolated" 
d="M-115 0l-12 52l77 17s-6 20 -6 38c0 55 45 96 100 96c56 0 84 -36 84 -78c0 -51 -36 -81 -89 -93zM8 81l26 6c20 3 34 17 34 35c0 15 -10 26 -28 26c-22 0 -38 -17 -37 -39c0 -13 5 -28 5 -28z" />
    <glyph glyph-name="kasra" unicode="&#xfe7a;" horiz-adv-x="0" arabic-form="isolated" 
d="M-112 -206v71l224 32v-71z" />
    <glyph glyph-name="shadda" unicode="&#xfe7c;" horiz-adv-x="0" arabic-form="isolated" 
d="M2 39c-13 -22 -42 -39 -70 -39c-32 0 -59 20 -66 69l-8 56l60 10l8 -56c3 -16 11 -24 22 -24c17 0 26 13 24 32l-9 56l60 10l9 -57c3 -16 12 -27 25 -27c21 0 27 16 24 38l-9 60l60 8l9 -56c9 -58 -24 -103 -88 -103c-18 0 -40 9 -51 23z" />
    <glyph glyph-name="sukun" unicode="&#xfe7e;" horiz-adv-x="0" arabic-form="isolated" 
d="M-33 84c0 -20 13 -33 33 -33c21 0 32 14 32 34s-12 35 -32 35s-33 -16 -33 -36zM-95 84c0 52 44 86 95 86c56 0 95 -29 95 -84c0 -51 -44 -86 -95 -86c-56 0 -95 28 -95 84z" />
    <glyph glyph-name="alef_wasla.isol" unicode="&#x671;" horiz-adv-x="302" arabic-form="isolated" 
d="M110 819h103v13c0 44 -13 61 -35 61c-34 0 -58 -35 -68 -74zM-13 750v69h49c26 80 74 141 156 141c67 0 100 -41 100 -126v-84h-305zM85 0v688h132v-688h-132z" />
    <glyph glyph-name="alef_wasla.fina" unicode="&#x671;" horiz-adv-x="302" arabic-form="final" 
d="M85 0v688h132v-584h100v-104h-232zM-13 750v69h49c26 80 74 141 156 141c67 0 100 -41 100 -126v-84h-305zM110 819h103v13c0 44 -13 61 -35 61c-34 0 -58 -35 -68 -74z" />
    <glyph glyph-name="tteh.isol" unicode="&#x679;" horiz-adv-x="773" arabic-form="isolated" 
d="M699 0h-282c-272 0 -367 113 -367 296c0 54 11 116 26 157l141 23c-21 -46 -34 -112 -34 -165c0 -141 61 -207 248 -207h136v366h132v-470zM492 644c0 30 -11 48 -38 48c-44 0 -88 -52 -101 -107h67c52 0 72 25 72 59zM354 815v-78c0 -16 -3 -37 -7 -58h1
c25 41 69 69 118 69c64 0 100 -33 100 -97c0 -74 -55 -122 -154 -122h-129v286h71z" />
    <glyph glyph-name="uniFB67" unicode="&#x679;" horiz-adv-x="782" arabic-form="final" 
d="M798 0h-381c-272 0 -367 113 -367 296c0 54 11 116 26 157l141 23c-21 -46 -34 -112 -34 -165c0 -141 61 -207 248 -207h136v366h132v-366h99v-104zM354 815v-78c0 -16 -3 -37 -7 -58h1c25 41 69 69 118 69c64 0 100 -33 100 -97c0 -74 -55 -122 -154 -122h-129v286h71z
M492 644c0 30 -11 48 -38 48c-44 0 -88 -52 -101 -107h67c52 0 72 25 72 59z" />
    <glyph glyph-name="uniFB68" unicode="&#x679;" horiz-adv-x="394" arabic-form="initial" 
d="M0 0v104h188v366h132v-470h-320zM285 674c0 30 -11 48 -38 48c-44 0 -88 -52 -101 -107h67c52 0 72 25 72 59zM147 845v-78c0 -16 -3 -37 -7 -58h1c25 41 69 69 118 69c64 0 100 -33 100 -97c0 -74 -55 -122 -154 -122h-129v286h71z" />
    <glyph glyph-name="uniFB69" unicode="&#x679;" horiz-adv-x="403" arabic-form="medial" 
d="M0 0v104h188v366h132v-366h99v-104h-419zM147 845v-78c0 -16 -3 -37 -7 -58h1c25 41 69 69 118 69c64 0 100 -33 100 -97c0 -74 -55 -122 -154 -122h-129v286h71zM285 674c0 30 -11 48 -38 48c-44 0 -88 -52 -101 -107h67c52 0 72 25 72 59z" />
    <glyph glyph-name="peh.isol" unicode="&#x67e;" horiz-adv-x="773" arabic-form="isolated" 
d="M699 0h-282c-272 0 -367 113 -367 296c0 54 11 116 26 157l141 23c-21 -46 -34 -112 -34 -165c0 -141 61 -207 248 -207h136v366h132v-470zM415 -291c-33 0 -58 25 -58 58c0 32 25 58 58 58c32 0 58 -26 58 -58c0 -33 -26 -58 -58 -58zM495 -171c-34 0 -60 27 -60 62
c0 34 26 61 60 61s61 -27 61 -61s-27 -62 -61 -62zM334 -171c-34 0 -61 27 -61 62c0 34 27 61 61 61s61 -27 61 -61s-27 -62 -61 -62z" />
    <glyph glyph-name="peh.fina" unicode="&#x67e;" horiz-adv-x="782" arabic-form="final" 
d="M798 0h-381c-272 0 -367 113 -367 296c0 54 11 116 26 157l141 23c-21 -46 -34 -112 -34 -165c0 -141 61 -207 248 -207h136v366h132v-366h99v-104zM334 -171c-34 0 -61 27 -61 62c0 34 27 61 61 61s61 -27 61 -61s-27 -62 -61 -62zM495 -171c-34 0 -60 27 -60 62
c0 34 26 61 60 61s61 -27 61 -61s-27 -62 -61 -62zM415 -291c-33 0 -58 25 -58 58c0 32 25 58 58 58c32 0 58 -26 58 -58c0 -33 -26 -58 -58 -58z" />
    <glyph glyph-name="peh.init" unicode="&#x67e;" horiz-adv-x="394" arabic-form="initial" 
d="M0 0v104h188v366h132v-470h-320zM179 -291c-33 0 -58 25 -58 58c0 32 25 58 58 58c32 0 58 -26 58 -58c0 -33 -26 -58 -58 -58zM259 -171c-34 0 -60 27 -60 62c0 34 26 61 60 61s61 -27 61 -61s-27 -62 -61 -62zM98 -171c-34 0 -61 27 -61 62c0 34 27 61 61 61
s61 -27 61 -61s-27 -62 -61 -62z" />
    <glyph glyph-name="peh.medi" unicode="&#x67e;" horiz-adv-x="403" arabic-form="medial" 
d="M0 0v104h188v366h132v-366h99v-104h-419zM98 -171c-34 0 -61 27 -61 62c0 34 27 61 61 61s61 -27 61 -61s-27 -62 -61 -62zM259 -171c-34 0 -60 27 -60 62c0 34 26 61 60 61s61 -27 61 -61s-27 -62 -61 -62zM179 -291c-33 0 -58 25 -58 58c0 32 25 58 58 58
c32 0 58 -26 58 -58c0 -33 -26 -58 -58 -58z" />
    <glyph glyph-name="tcheh.isol" unicode="&#x686;" horiz-adv-x="617" arabic-form="isolated" 
d="M545 0h-209c-149 0 -189 -49 -189 -112c0 -50 35 -88 105 -100l-29 -106c-125 21 -207 87 -207 198c0 128 96 224 324 224h85c4 24 5 51 5 76c0 127 -51 192 -195 192c-41 0 -79 -3 -115 -8v103c39 5 84 9 128 9c225 0 313 -99 313 -291c0 -50 -4 -113 -16 -185z
M409 -290c-33 0 -58 25 -58 58c0 32 25 58 58 58c32 0 58 -26 58 -58c0 -33 -26 -58 -58 -58zM489 -170c-34 0 -60 27 -60 62c0 34 26 61 60 61s61 -27 61 -61s-27 -62 -61 -62zM328 -170c-34 0 -61 27 -61 62c0 34 27 61 61 61s61 -27 61 -61s-27 -62 -61 -62z" />
    <glyph glyph-name="tcheh.fina" unicode="&#x686;" horiz-adv-x="621" arabic-form="final" 
d="M636 0h-300c-149 0 -189 -49 -189 -112c0 -50 35 -88 105 -100l-29 -106c-125 21 -207 87 -207 198c0 128 96 224 324 224h85c4 24 5 51 5 76c0 127 -51 192 -195 192c-41 0 -79 -3 -115 -8v103c39 5 84 9 128 9c225 0 313 -99 313 -291c0 -24 -1 -51 -3 -81h78v-104z
M328 -170c-34 0 -61 27 -61 62c0 34 27 61 61 61s61 -27 61 -61s-27 -62 -61 -62zM489 -170c-34 0 -60 27 -60 62c0 34 26 61 60 61s61 -27 61 -61s-27 -62 -61 -62zM409 -290c-33 0 -58 25 -58 58c0 32 25 58 58 58c32 0 58 -26 58 -58c0 -33 -26 -58 -58 -58z" />
    <glyph glyph-name="tcheh.init" unicode="&#x686;" horiz-adv-x="578" arabic-form="initial" 
d="M0 0v104h387c3 24 5 51 5 76c0 127 -52 192 -196 192c-41 0 -78 -3 -115 -8v103c39 5 85 9 128 9c225 0 314 -99 314 -291c0 -50 -5 -113 -17 -185h-506zM238 -290c-33 0 -58 25 -58 58c0 32 25 58 58 58c32 0 58 -26 58 -58c0 -33 -26 -58 -58 -58zM318 -170
c-34 0 -60 27 -60 62c0 34 26 61 60 61s61 -27 61 -61s-27 -62 -61 -62zM157 -170c-34 0 -61 27 -61 62c0 34 27 61 61 61s61 -27 61 -61s-27 -62 -61 -62z" />
    <glyph glyph-name="tcheh.medi" unicode="&#x686;" horiz-adv-x="582" arabic-form="medial" 
d="M0 0v104h387c3 24 5 51 5 76c0 127 -52 192 -196 192c-41 0 -78 -3 -115 -8v103c39 5 85 9 128 9c225 0 314 -99 314 -291c0 -24 -1 -52 -4 -81h78v-104h-597zM157 -170c-34 0 -61 27 -61 62c0 34 27 61 61 61s61 -27 61 -61s-27 -62 -61 -62zM318 -170
c-34 0 -60 27 -60 62c0 34 26 61 60 61s61 -27 61 -61s-27 -62 -61 -62zM238 -290c-33 0 -58 25 -58 58c0 32 25 58 58 58c32 0 58 -26 58 -58c0 -33 -26 -58 -58 -58z" />
    <glyph glyph-name="ddal.isol" unicode="&#x688;" horiz-adv-x="521" arabic-form="isolated" 
d="M46 0v104h297c-6 148 -79 240 -236 280l32 110c217 -57 333 -180 333 -428v-66h-426zM319 674c0 30 -11 48 -38 48c-44 0 -88 -52 -101 -107h67c52 0 72 25 72 59zM181 845v-78c0 -16 -3 -37 -7 -58h1c25 41 69 69 118 69c64 0 100 -33 100 -97c0 -74 -55 -122 -154 -122
h-129v286h71z" />
    <glyph glyph-name="ddal.fina" unicode="&#x688;" horiz-adv-x="521" arabic-form="final" 
d="M46 0v104h297c-6 148 -79 240 -236 280l32 110c205 -54 320 -167 332 -390h65v-104h-490zM181 845v-78c0 -16 -3 -37 -7 -58h1c25 41 69 69 118 69c64 0 100 -33 100 -97c0 -74 -55 -122 -154 -122h-129v286h71zM319 674c0 30 -11 48 -38 48c-44 0 -88 -52 -101 -107h67
c52 0 72 25 72 59z" />
    <glyph glyph-name="uni0691" unicode="&#x691;" horiz-adv-x="396" arabic-form="isolated" 
d="M75 -254c-31 0 -59 4 -84 10l11 105c23 -7 49 -12 81 -12c67 0 107 32 107 140v481h132v-474c0 -128 -43 -250 -247 -250zM324 674c0 30 -11 48 -38 48c-44 0 -88 -52 -101 -107h67c52 0 72 25 72 59zM186 845v-78c0 -16 -3 -37 -7 -58h1c25 41 69 69 118 69
c64 0 100 -33 100 -97c0 -74 -55 -122 -154 -122h-129v286h71z" />
    <glyph glyph-name="uniFB8D" unicode="&#x691;" horiz-adv-x="406" arabic-form="final" 
d="M75 -254c-31 0 -59 4 -84 10l11 105c23 -7 49 -12 81 -12c67 0 107 32 107 140v481h132v-366h99v-104h-99v-4c0 -128 -43 -250 -247 -250zM186 845v-78c0 -16 -3 -37 -7 -58h1c25 41 69 69 118 69c64 0 100 -33 100 -97c0 -74 -55 -122 -154 -122h-129v286h71zM324 674
c0 30 -11 48 -38 48c-44 0 -88 -52 -101 -107h67c52 0 72 25 72 59z" />
    <glyph glyph-name="uni0698" unicode="&#x698;" horiz-adv-x="396" arabic-form="isolated" 
d="M75 -254c-31 0 -59 4 -84 10l11 105c23 -7 49 -12 81 -12c67 0 107 32 107 140v481h132v-474c0 -128 -43 -250 -247 -250zM246 688c-34 0 -61 28 -61 63s27 63 61 63c35 0 62 -28 62 -63s-27 -63 -62 -63zM330 546c-38 0 -67 30 -67 68c0 37 29 68 67 68
c37 0 66 -30 66 -68c0 -37 -29 -68 -66 -68zM164 546c-37 0 -66 30 -66 68c0 37 29 68 66 68s66 -30 66 -68c0 -37 -29 -68 -66 -68z" />
    <glyph glyph-name="uniFB8B" unicode="&#x698;" horiz-adv-x="406" arabic-form="final" 
d="M75 -254c-31 0 -59 4 -84 10l11 105c23 -7 49 -12 81 -12c67 0 107 32 107 140v481h132v-366h99v-104h-99v-4c0 -128 -43 -250 -247 -250zM330 546c-38 0 -67 30 -67 68c0 37 29 68 67 68c37 0 66 -30 66 -68c0 -37 -29 -68 -66 -68zM164 546c-37 0 -66 30 -66 68
c0 37 29 68 66 68s66 -30 66 -68c0 -37 -29 -68 -66 -68zM246 688c-34 0 -61 28 -61 63s27 63 61 63c35 0 62 -28 62 -63s-27 -63 -62 -63z" />
    <glyph glyph-name="veh.isol" unicode="&#x6a4;" horiz-adv-x="926" arabic-form="isolated" 
d="M643 688c-34 0 -61 28 -61 63s27 63 61 63c35 0 62 -28 62 -63s-27 -63 -62 -63zM727 546c-38 0 -67 30 -67 68c0 37 29 68 67 68c37 0 66 -30 66 -68c0 -37 -29 -68 -66 -68zM561 546c-37 0 -66 30 -66 68c0 37 29 68 66 68s66 -30 66 -68c0 -37 -29 -68 -66 -68z
M885 250c0 -146 -106 -250 -255 -250h-213c-272 0 -367 113 -367 296c0 54 11 116 26 157l141 23c-21 -46 -34 -112 -34 -165c0 -141 65 -207 226 -207h33c-29 27 -44 75 -44 130c0 144 103 249 254 249c142 0 233 -74 233 -233zM752 243c0 88 -34 136 -109 136
c-57 0 -113 -40 -113 -134s37 -141 111 -141c63 0 111 46 111 139z" />
    <glyph glyph-name="veh.fina" unicode="&#x6a4;" horiz-adv-x="941" arabic-form="final" 
d="M956 104v-104h-539c-272 0 -367 113 -367 296c0 54 11 116 26 157l141 23c-21 -46 -34 -112 -34 -165c0 -141 65 -207 226 -207h33c-29 27 -44 75 -44 130c0 144 103 249 254 249c142 0 233 -74 233 -233c0 -58 -20 -119 -58 -151c0 0 42 5 76 5h53zM752 243
c0 88 -34 136 -109 136c-57 0 -113 -40 -113 -134s37 -141 111 -141c63 0 111 46 111 139zM643 688c-34 0 -61 28 -61 63s27 63 61 63c35 0 62 -28 62 -63s-27 -63 -62 -63zM727 546c-38 0 -67 30 -67 68c0 37 29 68 67 68c37 0 66 -30 66 -68c0 -37 -29 -68 -66 -68z
M561 546c-37 0 -66 30 -66 68c0 37 29 68 66 68s66 -30 66 -68c0 -37 -29 -68 -66 -68z" />
    <glyph glyph-name="veh.init" unicode="&#x6a4;" horiz-adv-x="612" arabic-form="initial" 
d="M304 688c-34 0 -61 28 -61 63s27 63 61 63c35 0 62 -28 62 -63s-27 -63 -62 -63zM388 546c-38 0 -67 30 -67 68c0 37 29 68 67 68c37 0 66 -30 66 -68c0 -37 -29 -68 -66 -68zM222 546c-37 0 -66 30 -66 68c0 37 29 68 66 68s66 -30 66 -68c0 -37 -29 -68 -66 -68zM543 0
h-543v104h57c35 0 56 -7 56 -7c-37 27 -56 72 -56 143c0 127 86 243 260 243c156 0 226 -90 226 -230v-253zM414 104v133c0 100 -40 142 -107 142c-75 0 -119 -57 -119 -135c0 -94 46 -140 150 -140h76z" />
    <glyph glyph-name="veh.medi" unicode="&#x6a4;" horiz-adv-x="600" arabic-form="medial" 
d="M302 688c-34 0 -61 28 -61 63s27 63 61 63c35 0 62 -28 62 -63s-27 -63 -62 -63zM386 546c-38 0 -67 30 -67 68c0 37 29 68 67 68c37 0 66 -30 66 -68c0 -37 -29 -68 -66 -68zM220 546c-37 0 -66 30 -66 68c0 37 29 68 66 68s66 -30 66 -68c0 -37 -29 -68 -66 -68zM0 0
v104h42c31 0 61 -5 61 -5c-30 31 -46 78 -46 135c0 144 103 249 254 249c142 0 233 -74 233 -233c0 -58 -20 -119 -58 -151c0 0 42 5 76 5h53v-104h-615zM300 104c63 0 111 46 111 139c0 88 -34 136 -109 136c-57 0 -113 -40 -113 -134s37 -141 111 -141z" />
    <glyph glyph-name="kheh.isol" unicode="&#x6a9;" horiz-adv-x="846" arabic-form="isolated" 
d="M782 0h-365c-272 0 -367 113 -367 296c0 54 11 116 26 157l141 23c-21 -46 -34 -112 -34 -165c0 -141 61 -207 248 -207h221c-6 155 -86 245 -244 282v97l395 248v-131l-244 -147c134 -60 223 -169 223 -386v-67z" />
    <glyph glyph-name="kheh.fina" unicode="&#x6a9;" horiz-adv-x="846" arabic-form="final" 
d="M417 0c-272 0 -367 113 -367 296c0 54 11 116 26 157l141 23c-21 -46 -34 -112 -34 -165c0 -141 61 -207 248 -207h221c-6 155 -86 245 -244 282v97l395 248v-131l-244 -147c126 -57 212 -157 222 -349h81v-104h-445z" />
    <glyph glyph-name="kheh.init" unicode="&#x6a9;" horiz-adv-x="491" arabic-form="initial" 
d="M0 0v104h297c-6 155 -86 245 -245 282v97l396 248v-131l-244 -147c134 -60 222 -169 222 -386v-67h-426z" />
    <glyph glyph-name="kheh.medi" unicode="&#x6a9;" horiz-adv-x="491" arabic-form="medial" 
d="M0 0v104h297c-6 155 -86 245 -245 282v97l396 248v-131l-244 -147c126 -57 211 -157 221 -349h81v-104h-506z" />
    <glyph glyph-name="Gaf.isol" unicode="&#x6af;" horiz-adv-x="846" arabic-form="isolated" 
d="M782 0h-365c-272 0 -367 113 -367 296c0 54 11 116 26 157l141 23c-21 -46 -34 -112 -34 -165c0 -141 61 -207 248 -207h221c-6 155 -86 245 -244 282v85l395 249v-120l-244 -147c134 -60 223 -169 223 -386v-67zM408 553v113l395 249v-114z" />
    <glyph glyph-name="Gaf.fina" unicode="&#x6af;" horiz-adv-x="846" arabic-form="final" 
d="M417 0c-272 0 -367 113 -367 296c0 54 11 116 26 157l141 23c-21 -46 -34 -112 -34 -165c0 -141 61 -207 248 -207h221c-6 155 -86 245 -244 282v85l395 249v-120l-244 -147c126 -57 212 -157 222 -349h81v-104h-445zM408 553v113l395 249v-114z" />
    <glyph glyph-name="Gaf.init" unicode="&#x6af;" horiz-adv-x="491" arabic-form="initial" 
d="M0 0v104h297c-6 155 -86 245 -245 282v85l396 249v-120l-244 -147c134 -60 222 -169 222 -386v-67h-426zM52 553v113l396 249v-114z" />
    <glyph glyph-name="Gaf.medi" unicode="&#x6af;" horiz-adv-x="491" arabic-form="medial" 
d="M0 0v104h297c-6 155 -86 245 -245 282v85l396 249v-120l-244 -147c126 -57 211 -157 221 -349h81v-104h-506zM52 553v113l396 249v-114z" />
    <glyph glyph-name="ghunna.isol" unicode="&#x6ba;" horiz-adv-x="667" arabic-form="isolated" 
d="M593 470v-399c0 -200 -91 -301 -282 -301c-160 0 -264 84 -264 284c0 58 8 121 24 179l136 25c-18 -64 -28 -131 -28 -192c0 -153 72 -193 142 -193c87 0 140 46 140 190v407h132z" />
    <glyph glyph-name="ghunna.fina" unicode="&#x6ba;" horiz-adv-x="677" arabic-form="final" 
d="M593 470v-366h99v-104h-104c-20 -153 -110 -230 -277 -230c-160 0 -264 84 -264 284c0 58 8 121 24 179l136 25c-18 -64 -28 -131 -28 -192c0 -153 72 -193 142 -193c87 0 140 46 140 190v407h132z" />
    <glyph glyph-name="uni06BE" unicode="&#x6be;" horiz-adv-x="766" arabic-form="isolated" 
d="M707 0h-707v104h85c27 0 45 -5 45 -5s-26 26 -26 67c0 95 69 169 189 169c131 0 183 -89 183 -205v-26h105v12c0 207 -84 308 -283 308c-68 0 -150 -16 -214 -37l-12 93c71 23 163 39 242 39c250 0 393 -120 393 -412v-107zM369 100v31c0 71 -27 121 -85 121
c-46 0 -72 -32 -72 -72c0 -52 42 -80 94 -80h63z" />
    <glyph glyph-name="uniFBAB" unicode="&#x6be;" horiz-adv-x="661" arabic-form="final" 
d="M676 104v-104h-92c-25 0 -49 3 -78 8v-2c56 -16 86 -58 86 -119c0 -124 -85 -207 -223 -207c-174 0 -254 129 -265 320h-104v104h105c14 161 86 315 226 408c147 -75 243 -170 243 -278c0 -69 -27 -112 -69 -134v-2c29 3 50 6 78 6h93zM306 0h-72
c11 -152 63 -216 142 -216c55 0 87 37 87 98c0 71 -54 118 -157 118zM340 361c-59 -55 -99 -146 -107 -257h83c105 0 130 55 130 109c0 62 -46 109 -106 148z" />
    <glyph glyph-name="hehhamza" unicode="&#x6c0;" horiz-adv-x="594" arabic-form="isolated" 
d="M525 0h-219c-195 0 -268 90 -268 231c0 136 87 252 261 252c156 0 226 -90 226 -230v-253zM396 104v133c0 100 -40 142 -107 142c-75 0 -119 -57 -119 -135c0 -94 46 -140 150 -140h76zM151 554v75c21 0 42 -1 56 -4c-12 6 -19 24 -19 39c0 56 40 112 145 112
c27 0 52 -4 59 -5l-12 -75c-5 1 -27 5 -50 5c-31 0 -48 -14 -48 -34c0 -22 18 -38 69 -38h57v-75h-257z" />
    <glyph glyph-name="hehhamza.fina" unicode="&#x6c0;" horiz-adv-x="595" arabic-form="final" 
d="M610 0h-304c-195 0 -268 90 -268 232c0 131 81 251 265 251c118 0 209 -35 209 -35v-344h98v-104zM384 104v257s-38 18 -95 18c-75 0 -119 -57 -119 -135c0 -91 45 -140 150 -140h64zM151 554v75c21 0 42 -1 56 -4c-12 6 -19 24 -19 39c0 56 40 112 145 112
c27 0 52 -4 59 -5l-12 -75c-5 1 -27 5 -50 5c-31 0 -48 -14 -48 -34c0 -22 18 -38 69 -38h57v-75h-257z" />
    <glyph glyph-name="uni06C1" unicode="&#x6c1;" horiz-adv-x="594" arabic-form="isolated" 
d="M525 0h-219c-195 0 -268 90 -268 231c0 136 87 252 261 252c156 0 226 -90 226 -230v-253zM396 104v133c0 100 -40 142 -107 142c-75 0 -119 -57 -119 -135c0 -94 46 -140 150 -140h76z" />
    <glyph glyph-name="hehfinaltone" unicode="&#x6c1;" horiz-adv-x="565" arabic-form="final" 
d="M580 104v-104h-27c-165 0 -239 71 -239 211v30c-77 -16 -141 -71 -195 -153l-82 68c81 118 199 200 355 200c24 0 50 -2 50 -2v-111c0 -104 33 -139 121 -139h17z" />
    <glyph glyph-name="hehinitialaltone" unicode="&#x6c1;" horiz-adv-x="346" arabic-form="initial" 
d="M0 0v104h140v366h132v-470h-272zM113 -242c-38 0 -61 28 -61 66c0 47 38 103 140 129l21 -46c-39 -20 -50 -36 -50 -54c0 -17 9 -23 9 -39c0 -29 -21 -56 -59 -56z" />
    <glyph glyph-name="hehmedialaltone" unicode="&#x6c1;" horiz-adv-x="719" arabic-form="medial" 
d="M734 104v-104h-112v-260h-121c-185 0 -289 97 -289 257c0 32 4 73 11 99l-2 1c-28 -59 -83 -97 -157 -97h-64v104h74c84 0 135 73 135 170v96h127v-343c0 -122 53 -183 158 -184v261h240zM96 -267c-41 0 -65 32 -65 72c0 41 22 96 100 149l37 -37
c-27 -26 -36 -48 -36 -63c0 -25 22 -30 22 -65c0 -28 -23 -56 -58 -56z" />
    <glyph glyph-name="uni06CC" unicode="&#x6cc;" horiz-adv-x="1057" arabic-form="isolated" 
d="M626 0h-209c-272 0 -367 113 -367 296c0 54 11 116 26 157l141 23c-21 -46 -34 -112 -34 -165c0 -141 61 -207 248 -207h68v360s93 19 201 19c176 0 231 -84 231 -221v-126h-128v112c0 96 -28 131 -111 131c-33 0 -66 -6 -66 -6v-373z" />
    <glyph glyph-name="alefmaksura.init" unicode="&#x649;" horiz-adv-x="346" arabic-form="initial" 
d="M0 0v104h140v366h132v-470h-272z" />
    <glyph glyph-name="alefmaksura.medi" unicode="&#x649;" horiz-adv-x="355" arabic-form="medial" 
d="M0 0v104h140v366h132v-366h98v-104h-370z" />
    <glyph glyph-name="uniFBFD" unicode="&#x6cc;" horiz-adv-x="596" arabic-form="final" 
d="M372 0v104h239v-104h-81c19 -10 32 -39 31 -73c0 -72 -67 -174 -250 -174c-166 0 -264 90 -264 288c0 71 8 134 24 192l136 25c-18 -64 -28 -131 -28 -203c0 -153 67 -198 145 -198c79 0 109 49 105 87c-2 32 -23 56 -57 56z" />
    <glyph glyph-name="uniFBFE" unicode="&#x6cc;" horiz-adv-x="394" arabic-form="initial" 
d="M317 -150c0 -37 -29 -68 -66 -68s-66 30 -66 68c0 37 29 68 66 68s66 -30 66 -68zM152 -150c0 -37 -29 -68 -67 -68c-37 0 -66 30 -66 68c0 37 29 68 66 68c38 0 67 -30 67 -68zM0 0v104h188v366h132v-470h-320z" />
    <glyph glyph-name="uniFBFF" unicode="&#x6cc;" horiz-adv-x="403" arabic-form="medial" 
d="M0 0v104h188v366h132v-366h99v-104h-419zM152 -150c0 -37 -29 -68 -67 -68c-37 0 -66 30 -66 68c0 37 29 68 66 68c38 0 67 -30 67 -68zM317 -150c0 -37 -29 -68 -66 -68s-66 30 -66 68c0 37 29 68 66 68s66 -30 66 -68z" />
    <glyph glyph-name="yehbarree" unicode="&#x6d2;" horiz-adv-x="750" arabic-form="isolated" 
d="M694 0h-630c-32 239 118 483 332 483c125 0 165 -70 165 -174v-59h-127v37c0 58 -14 89 -62 89c-97 0 -181 -157 -181 -272h503v-104z" />
    <glyph glyph-name="yehbarree.fina" unicode="&#x6d2;" horiz-adv-x="791" arabic-form="final" 
d="M694 -320h-630c-26 222 115 424 396 424h346v-104h-363c-171 0 -252 -123 -252 -216h503v-104z" />
    <glyph glyph-name="uni06D3" unicode="&#x6d3;" horiz-adv-x="750" arabic-form="isolated" 
d="M694 0h-630c-32 239 118 483 332 483c125 0 165 -70 165 -174v-59h-127v37c0 58 -14 89 -62 89c-97 0 -181 -157 -181 -272h503v-104zM189 554v75c21 0 42 -1 56 -4c-12 6 -19 24 -19 39c0 56 40 112 145 112c27 0 52 -4 59 -5l-12 -75c-5 1 -27 5 -50 5
c-31 0 -48 -14 -48 -34c0 -22 18 -38 69 -38h57v-75h-257z" />
    <glyph glyph-name="uniFBB1" unicode="&#x6d3;" horiz-adv-x="791" arabic-form="final" 
d="M694 -320h-630c-26 222 115 424 396 424h346v-104h-363c-171 0 -252 -123 -252 -216h503v-104zM244 190v75c21 0 42 -1 56 -4c-12 6 -19 24 -19 39c0 56 40 112 145 112c27 0 52 -4 59 -5l-12 -75c-5 1 -27 5 -50 5c-31 0 -48 -14 -48 -34c0 -22 18 -38 69 -38h57v-75
h-257z" />
    <glyph glyph-name="shadda_dammatan" unicode="&#xfc5e;" horiz-adv-x="0" arabic-form="isolated" 
d="M-113 145l-28 132l52 11l18 -84l43 9s-6 15 -6 30c0 54 42 91 94 91c51 0 75 -28 75 -69c0 -47 -32 -76 -84 -86zM25 224l21 4c22 5 34 15 34 35c0 15 -10 22 -25 22c-20 0 -34 -15 -34 -37c0 -13 4 -24 4 -24zM29 38c-9 -23 -32 -38 -62 -38c-31 0 -46 19 -55 65l-8 37
l51 10l7 -35c3 -15 8 -22 19 -22c14 0 20 14 17 31l-6 38l49 10l8 -37c4 -18 11 -25 21 -25c18 0 21 15 18 37l-7 40l50 9l7 -37c12 -60 -13 -101 -68 -101c-16 0 -31 6 -41 18z" />
    <glyph glyph-name="shadda_kasratan" unicode="&#xfc5f;" horiz-adv-x="0" arabic-form="isolated" 
d="M-91 77l-8 49l210 32l8 -49zM-79 0l-8 49l211 33l7 -49zM-8 207c-10 -23 -33 -36 -60 -36c-34 0 -48 20 -56 66l-7 37l50 9l7 -35c2 -16 8 -22 19 -22c14 -1 20 12 17 30l-5 38l49 9l7 -37c4 -18 10 -26 21 -26c18 1 21 16 18 37l-6 40l50 8l7 -37
c10 -61 -15 -99 -69 -100c-17 0 -32 7 -42 19z" />
    <glyph glyph-name="shadda_fatha" unicode="&#xfc60;" horiz-adv-x="0" arabic-form="isolated" 
d="M-114 162l-9 50l211 32l8 -49zM10 37c-9 -24 -33 -37 -60 -37c-34 0 -48 21 -56 66l-7 38l51 9l6 -36c3 -15 8 -21 20 -21c13 -1 19 12 16 30l-5 37l50 10l7 -37c3 -19 10 -26 20 -26c18 0 21 15 18 37l-6 39l51 9l6 -37c11 -61 -15 -99 -69 -100c-16 0 -32 7 -42 19z
" />
    <glyph glyph-name="shadda_damma" unicode="&#xfc61;" horiz-adv-x="0" arabic-form="isolated" 
d="M-119 146l-11 48l92 19s-6 15 -6 30c0 54 42 91 94 91c51 0 75 -28 75 -69c0 -47 -32 -76 -84 -86zM15 224l21 4c22 5 34 15 34 35c0 15 -10 22 -25 22c-20 0 -34 -15 -34 -37c0 -13 4 -24 4 -24zM19 38c-9 -23 -32 -38 -62 -38c-31 0 -46 19 -55 65l-8 37l51 10l7 -35
c3 -15 8 -22 19 -22c14 0 20 14 17 31l-6 38l49 10l8 -37c4 -18 11 -25 21 -25c18 0 21 15 18 37l-7 40l50 9l7 -37c12 -60 -13 -101 -68 -101c-16 0 -31 6 -41 18z" />
    <glyph glyph-name="shadda_kasra" unicode="&#xfc62;" horiz-adv-x="0" arabic-form="isolated" 
d="M-85 0l-9 49l211 32l8 -49zM-1 127c-10 -23 -33 -36 -60 -36c-34 0 -48 20 -56 66l-7 37l50 9l7 -35c2 -16 8 -22 19 -22c14 -1 20 12 17 30l-5 38l49 9l7 -37c4 -18 10 -26 21 -26c18 1 21 16 18 37l-6 40l51 8l6 -37c10 -61 -15 -99 -69 -100c-17 0 -32 7 -42 19z" />
    <glyph glyph-name="shadda_alefsuperscript" unicode="&#xfc63;" horiz-adv-x="0" arabic-form="isolated" 
d="M7 35c-10 -21 -33 -33 -59 -34c-35 -1 -49 18 -58 59l-8 35l50 9l7 -32c3 -15 9 -21 20 -21c14 0 20 12 17 29l-6 35l49 9l8 -34c4 -17 10 -24 21 -23c18 0 21 14 17 34l-7 36l51 9l7 -34c12 -56 -13 -91 -67 -93c-17 0 -32 5 -42 16zM15 158l-53 -10v96h53v-86z" />
    <glyph glyph-name="alah" unicode="&#xfdf2;" horiz-adv-x="1278" arabic-form="isolated" 
d="M1193 0h-887c-195 0 -268 90 -268 232c0 131 81 251 265 251c118 0 209 -35 209 -35v-344h207v571h132v-571h210v601h132v-705zM384 104v257s-38 18 -95 18c-75 0 -119 -57 -119 -135c0 -91 45 -140 150 -140h64z" />
    <glyph glyph-name=".notdef" 
d="M300 150h-150v250h50v-200h100v-50zM500 50h-450v450h450v-450zM350 350h-100v50h150v-250h-50v100h-100v50h100v50zM100 100h350v350h-350v-350z" />
    <glyph glyph-name=".null" horiz-adv-x="0" 
 />
    <glyph glyph-name="CR" horiz-adv-x="500" 
 />
    <glyph glyph-name="space" unicode=" " horiz-adv-x="244" 
 />
    <glyph glyph-name="uni00A0" unicode="&#xa0;" horiz-adv-x="120" 
 />
    <glyph glyph-name="A" unicode="A" horiz-adv-x="626" 
d="M625 0h-144l-46 138h-256l-47 -138h-131l233 675h153zM402 241l-69 201c-11 33 -20 63 -27 93h-1c-8 -30 -16 -60 -26 -93l-69 -201h192z" />
    <glyph glyph-name="AE" unicode="&#xc6;" horiz-adv-x="785" 
d="M729 0h-365v149h-197l-72 -149h-133l334 675h426v-109h-233v-166h225v-106h-225v-182h240v-112zM364 251v315h-2c-18 -46 -36 -87 -62 -141l-89 -174h153z" />
    <glyph glyph-name="B" unicode="B" horiz-adv-x="580" 
d="M539 208c0 -104 -74 -210 -272 -210c-45 0 -112 2 -197 2v674c57 3 142 5 224 5c145 0 226 -59 226 -167c0 -67 -37 -125 -102 -151v-2c72 -15 121 -76 121 -151zM382 491c0 50 -30 84 -109 84c-28 0 -52 -1 -73 -2v-177c16 -1 32 -1 53 -1c89 0 129 36 129 96zM400 204
c0 64 -54 94 -143 94c-9 0 -43 0 -57 -1v-191c16 -1 48 -3 72 -3c85 0 128 42 128 101z" />
    <glyph glyph-name="C" unicode="C" horiz-adv-x="566" 
d="M526 23c-50 -19 -113 -31 -176 -31c-236 0 -312 156 -312 324c0 214 112 365 338 365c48 0 100 -7 144 -20l-18 -120c-41 16 -87 24 -132 24c-127 0 -189 -95 -189 -227c0 -146 61 -228 197 -228c41 0 93 11 128 28z" />
    <glyph glyph-name="D" unicode="D" horiz-adv-x="667" 
d="M630 349c0 -231 -152 -353 -372 -353c-70 0 -131 3 -188 5v673c53 2 135 5 218 5c209 0 342 -93 342 -330zM490 339c0 145 -57 231 -211 231c-30 0 -58 -1 -79 -3v-455c18 -3 45 -5 71 -5c127 0 219 72 219 232z" />
    <glyph glyph-name="Eth" unicode="&#xd0;" horiz-adv-x="676" 
d="M639 349c0 -226 -145 -353 -372 -353c-69 0 -131 3 -188 5v295h-75v99h75v279c53 2 135 5 219 5c208 0 341 -93 341 -330zM499 339c0 145 -57 231 -212 231c-30 0 -58 -1 -79 -3v-172h122v-99h-122v-184c18 -3 45 -5 71 -5c128 0 220 72 220 232z" />
    <glyph glyph-name="E" unicode="E" horiz-adv-x="493" 
d="M437 0h-367v675h367v-109h-237v-166h225v-106h-225v-182h237v-112z" />
    <glyph glyph-name="F" unicode="F" horiz-adv-x="465" 
d="M431 564h-231v-173h218v-107h-218v-284h-130v675h361v-111z" />
    <glyph glyph-name="G" unicode="G" horiz-adv-x="675" 
d="M608 32c-67 -27 -150 -42 -231 -42c-222 0 -341 126 -341 327c0 219 131 368 375 368c70 0 137 -12 191 -29l-26 -119c-51 21 -110 32 -173 32c-160 0 -226 -107 -226 -235c0 -143 75 -227 215 -227c32 0 60 4 86 12v235h130v-322z" />
    <glyph glyph-name="H" unicode="H" horiz-adv-x="686" 
d="M617 0h-131v293h-286v-293h-130v675h130v-270h286v270h131v-675z" />
    <glyph glyph-name="I" unicode="I" horiz-adv-x="270" 
d="M200 0h-130v675h130v-675z" />
    <glyph glyph-name="J" unicode="J" horiz-adv-x="335" 
d="M266 189c0 -111 -45 -198 -182 -198c-36 0 -61 4 -84 8v112c16 -6 38 -10 62 -10c47 0 74 20 74 93v481h130v-486z" />
    <glyph glyph-name="K" unicode="K" horiz-adv-x="597" 
d="M588 0h-171l-217 324v-324h-130v675h130v-306l218 306h160l-248 -326z" />
    <glyph glyph-name="L" unicode="L" horiz-adv-x="429" 
d="M419 0h-349v675h130v-561h219v-114z" />
    <glyph glyph-name="M" unicode="M" horiz-adv-x="881" 
d="M850 0h-135l-49 326c-9 61 -16 122 -21 169h-2c-9 -43 -21 -99 -38 -154l-109 -341h-126l-104 317c-18 58 -34 123 -44 178h-2c-5 -60 -11 -121 -18 -180l-39 -315h-131l103 675h153l114 -349c11 -36 27 -95 37 -142h2c12 51 25 102 37 140l115 351h152z" />
    <glyph glyph-name="N" unicode="N" horiz-adv-x="699" 
d="M629 0h-172l-209 372c-25 49 -45 90 -60 132c4 -59 7 -223 7 -321v-183h-125v675h172l204 -363c24 -42 47 -91 65 -135c-4 68 -7 234 -7 328v170h125v-675z" />
    <glyph glyph-name="O" unicode="O" horiz-adv-x="703" 
d="M670 348c0 -224 -149 -359 -330 -359c-206 0 -307 131 -307 338c0 224 149 359 330 359c206 0 307 -131 307 -338zM531 333c0 143 -58 236 -179 236c-102 0 -180 -81 -180 -226c0 -144 58 -236 179 -236c102 0 180 80 180 226z" />
    <glyph glyph-name="OE" unicode="&#x152;" horiz-adv-x="860" 
d="M804 0h-355c-34 -7 -71 -11 -109 -11c-206 0 -307 131 -307 340c0 222 149 357 325 357c39 0 73 -4 105 -11h341v-109h-236v-166h224v-106h-224v-182h236v-112zM438 123v433c-27 8 -54 13 -86 13c-94 0 -180 -74 -180 -226c0 -143 56 -236 177 -236c28 0 61 6 89 16z" />
    <glyph glyph-name="P" unicode="P" horiz-adv-x="538" 
d="M515 471c0 -136 -94 -240 -268 -240c-25 0 -47 2 -47 2v-233h-130v675s93 4 189 4c165 0 256 -75 256 -208zM380 458c0 73 -39 114 -130 114c-25 0 -50 -1 -50 -1v-227s25 -5 55 -5c83 0 125 45 125 119z" />
    <glyph glyph-name="Thorn" unicode="&#xde;" horiz-adv-x="544" 
d="M528 365c0 -139 -108 -241 -278 -241c-19 0 -34 0 -50 2v-126h-130v675h130v-94c22 1 44 2 73 2c158 0 255 -73 255 -218zM394 357c0 69 -40 120 -140 120c-18 0 -35 -2 -54 -4v-239c17 -3 37 -4 58 -4c80 0 136 43 136 127z" />
    <glyph glyph-name="Q" unicode="Q" horiz-adv-x="703" 
d="M702 -66c-174 -25 -199 55 -333 55h-29c-206 0 -307 131 -307 338c0 224 149 359 330 359c206 0 307 -131 307 -338c0 -135 -53 -239 -139 -283c56 0 89 -31 171 -20v-111zM531 333c0 143 -58 236 -179 236c-102 0 -180 -81 -180 -226c0 -144 58 -236 179 -236
c101 0 180 81 180 226z" />
    <glyph glyph-name="R" unicode="R" horiz-adv-x="567" 
d="M554 0h-161l-182 279h-11v-279h-130v675c53 3 116 4 194 4c149 0 245 -52 245 -190c0 -100 -72 -172 -166 -188c19 -25 38 -50 54 -74zM373 476c0 65 -40 97 -122 97c-19 0 -38 -1 -51 -3v-195c9 -1 27 -2 47 -2c78 0 126 40 126 103z" />
    <glyph glyph-name="S" unicode="S" horiz-adv-x="503" 
d="M467 207c0 -125 -105 -218 -261 -218c-60 0 -111 6 -156 18l14 125c43 -18 93 -29 147 -29c61 0 113 25 113 88c0 129 -284 70 -284 292c0 120 92 203 255 203c37 0 84 -5 122 -13l-12 -114c-37 12 -76 19 -116 19c-76 0 -111 -33 -111 -81c0 -120 289 -76 289 -290z" />
    <glyph glyph-name="T" unicode="T" horiz-adv-x="510" 
d="M495 564h-175v-564h-130v564h-175v111h480v-111z" />
    <glyph glyph-name="U" unicode="U" horiz-adv-x="681" 
d="M611 262c0 -185 -102 -273 -280 -273c-213 0 -261 116 -261 245v441h130v-433c0 -85 28 -145 140 -145c100 0 142 42 142 157v421h129v-413z" />
    <glyph glyph-name="V" unicode="V" horiz-adv-x="628" 
d="M625 675l-237 -675h-150l-235 675h142l131 -395c13 -38 29 -88 39 -130h2c11 44 26 93 41 138l133 387h134z" />
    <glyph glyph-name="W" unicode="W" horiz-adv-x="951" 
d="M927 675l-172 -675h-160l-98 372c-11 43 -19 91 -26 139h-1c-5 -47 -13 -91 -25 -136l-98 -375h-151l-172 675h139l92 -373c11 -44 19 -90 25 -137h1c7 45 15 90 26 133l103 377h138l104 -375c10 -37 21 -84 27 -131h1c7 47 15 89 25 129l92 377h130z" />
    <glyph glyph-name="X" unicode="X" horiz-adv-x="628" 
d="M618 0h-164l-145 248l-145 -248h-154l215 345l-202 330h151l137 -234l136 234h148l-199 -329z" />
    <glyph glyph-name="Y" unicode="Y" horiz-adv-x="561" 
d="M559 675l-215 -436v-239h-130v238l-211 437h142l89 -194c18 -40 33 -77 46 -112h2c14 39 34 82 54 125l85 181h138z" />
    <glyph glyph-name="Z" unicode="Z" horiz-adv-x="537" 
d="M493 0h-448v100l243 396c15 23 28 43 44 64c-24 -1 -56 -2 -123 -2h-156v117h436v-105l-257 -405c-10 -16 -19 -31 -31 -47c17 2 63 2 146 2h146v-120z" />
    <glyph glyph-name="a" unicode="a" horiz-adv-x="524" 
d="M457 0h-122c0 29 1 58 5 84l-1 1c-24 -56 -85 -95 -159 -95c-90 0 -142 61 -142 142c0 118 113 173 287 173v18c0 60 -23 87 -89 87c-45 0 -106 -15 -150 -34l-21 98c50 20 121 34 188 34c154 0 200 -64 200 -175v-205c0 -40 1 -87 4 -128zM325 208v13
c-129 0 -164 -32 -164 -75c0 -32 23 -58 60 -58c62 0 104 60 104 120z" />
    <glyph glyph-name="ae" unicode="&#xe6;" horiz-adv-x="800" 
d="M762 285c0 -16 -1 -36 -4 -59h-308c-1 -91 45 -136 137 -136c47 0 97 10 144 31l14 -98c-54 -22 -119 -33 -180 -33c-107 0 -174 41 -200 101h-1c-31 -57 -92 -101 -183 -101s-143 61 -143 142c0 118 113 174 287 174v25c0 52 -25 79 -97 79c-45 0 -100 -15 -140 -35
l-23 101c50 19 120 32 185 32c66 0 122 -15 156 -62h1c30 36 83 62 146 62c145 0 209 -99 209 -223zM635 312c2 64 -32 102 -86 102c-53 0 -90 -40 -97 -102h183zM325 208v15c-130 0 -165 -34 -165 -77c0 -32 22 -58 59 -58c63 0 106 60 106 120z" />
    <glyph glyph-name="b" unicode="b" horiz-adv-x="559" 
d="M523 274c0 -168 -98 -284 -269 -284c-72 0 -128 8 -185 24v716h128v-214c0 -30 -3 -71 -8 -97h1c25 54 81 88 150 88c119 0 183 -86 183 -233zM389 261c0 93 -27 140 -85 140c-67 0 -107 -77 -107 -160v-140c18 -6 39 -9 67 -9c72 0 125 46 125 169z" />
    <glyph glyph-name="c" unicode="c" horiz-adv-x="425" 
d="M398 14c-39 -15 -92 -23 -140 -23c-138 0 -224 72 -224 241c0 155 81 274 253 274c38 0 77 -6 109 -17l-20 -110c-27 11 -60 19 -93 19c-76 0 -115 -61 -115 -153c0 -85 31 -144 116 -144c34 0 68 7 97 20z" />
    <glyph glyph-name="d" unicode="d" horiz-adv-x="558" 
d="M488 0h-119c0 24 2 56 6 83h-2c-26 -55 -81 -94 -157 -94c-121 0 -181 91 -181 233c0 168 98 284 263 284c21 0 41 -1 63 -4v228h127v-730zM361 258v139c-23 5 -45 8 -67 8c-73 0 -125 -46 -125 -169c0 -93 27 -141 85 -141c67 0 107 78 107 163z" />
    <glyph glyph-name="eth" unicode="&#xf0;" horiz-adv-x="555" 
d="M518 278c0 -195 -111 -288 -248 -288c-139 0 -237 79 -237 250c0 159 102 265 241 265c31 0 63 -9 79 -31c-9 16 -19 31 -25 41c-13 23 -30 45 -53 69l-92 -41l-52 60l84 37c-22 19 -48 38 -76 57l125 53c24 -18 47 -38 69 -60l89 39l51 -60l-86 -37
c84 -103 131 -224 131 -354zM385 260c0 85 -35 139 -109 139c-58 0 -110 -46 -110 -149c0 -98 43 -151 113 -151c62 0 106 49 106 161z" />
    <glyph glyph-name="e" unicode="e" horiz-adv-x="514" 
d="M476 296c0 -19 -1 -50 -5 -72h-307c0 -88 41 -134 137 -134c47 0 97 10 144 29l14 -97c-54 -20 -119 -32 -180 -32c-157 0 -245 79 -245 254c0 149 88 263 236 263c145 0 206 -93 206 -211zM349 309c2 68 -32 104 -86 104c-53 0 -91 -39 -98 -104h184z" />
    <glyph glyph-name="f" unicode="f" horiz-adv-x="354" 
d="M374 730l-9 -105c-20 7 -43 9 -62 9c-56 0 -81 -29 -81 -95v-42h116v-99h-116v-398h-127v398h-87v99h87v41c0 134 62 200 198 200c27 0 55 -2 81 -8z" />
    <glyph glyph-name="g" unicode="g" horiz-adv-x="545" 
d="M520 -53c0 -107 -108 -198 -273 -198c-132 0 -213 51 -213 148c0 52 36 100 77 122c-30 14 -49 42 -49 76c0 39 25 74 59 89c-46 25 -74 71 -74 136c0 100 74 188 219 188c32 0 54 -4 81 -11h169v-100h-68c16 -15 25 -37 25 -63c0 -106 -71 -179 -213 -179
c-14 0 -25 1 -39 4c-16 -7 -24 -20 -24 -32c0 -23 19 -29 77 -31l77 -3c107 -4 169 -50 169 -146zM351 327c0 53 -31 88 -90 88c-58 0 -92 -37 -92 -87c0 -53 32 -86 92 -86c56 0 90 32 90 85zM393 -70c0 36 -23 62 -78 64l-86 3h-23c-29 -21 -46 -48 -46 -76
c0 -46 42 -74 106 -74c83 0 127 36 127 83z" />
    <glyph glyph-name="h" unicode="h" horiz-adv-x="571" 
d="M501 0h-127v318c0 51 -14 82 -62 82c-64 0 -115 -73 -115 -161v-239h-128v730h128v-214c0 -30 -2 -71 -9 -101h2c29 55 86 92 163 92c112 0 148 -71 148 -158v-349z" />
    <glyph glyph-name="i" unicode="i" horiz-adv-x="266" 
d="M213 648c0 -42 -36 -77 -80 -77s-79 34 -79 77s35 78 79 78s80 -34 80 -78zM197 0h-128v497h128v-497z" />
    <glyph glyph-name="j" unicode="j" horiz-adv-x="271" 
d="M217 648c0 -42 -36 -77 -80 -77s-80 34 -80 77s36 78 80 78s80 -34 80 -78zM201 -37c0 -134 -48 -211 -193 -211c-23 0 -50 4 -71 10l9 109c18 -7 41 -12 59 -12c53 0 69 24 69 91v547h127v-534z" />
    <glyph glyph-name="k" unicode="k" horiz-adv-x="523" 
d="M511 0h-160l-154 246v-246h-128v730h128v-440l145 207h156l-174 -227z" />
    <glyph glyph-name="l" unicode="l" horiz-adv-x="266" 
d="M197 0h-128v730h128v-730z" />
    <glyph glyph-name="m" unicode="m" horiz-adv-x="866" 
d="M797 0h-128v314c0 53 -12 86 -59 86c-56 0 -114 -65 -114 -162v-238h-126v315c0 49 -10 85 -59 85c-59 0 -114 -69 -114 -162v-238h-128v497h121c0 -23 -2 -61 -6 -89l1 -1c30 61 90 100 164 100c88 0 125 -51 137 -99c23 48 78 99 162 99c96 0 149 -53 149 -165v-342z
" />
    <glyph glyph-name="n" unicode="n" horiz-adv-x="571" 
d="M501 0h-127v318c0 51 -14 82 -62 82c-64 0 -115 -73 -115 -160v-240h-128v497h121c0 -23 -2 -63 -7 -89h1c30 58 88 99 169 99c112 0 148 -71 148 -158v-349z" />
    <glyph glyph-name="o" unicode="o" horiz-adv-x="553" 
d="M520 258c0 -156 -106 -268 -254 -268c-141 0 -233 73 -233 250c0 155 103 267 254 267c142 0 233 -78 233 -249zM388 251c0 96 -35 148 -110 148c-57 0 -113 -44 -113 -146s38 -154 111 -154c63 0 112 51 112 152z" />
    <glyph glyph-name="oe" unicode="&#x153;" horiz-adv-x="860" 
d="M821 285c0 -16 -1 -36 -4 -59h-307c-1 -91 45 -136 136 -136c48 0 98 10 144 31l14 -98c-54 -22 -118 -33 -180 -33c-90 0 -148 30 -185 81c-36 -48 -97 -81 -174 -81c-140 0 -232 73 -232 250c0 156 102 267 254 267c64 0 129 -23 166 -73c36 45 88 74 159 74
c146 0 209 -99 209 -223zM694 312c2 64 -31 102 -86 102c-53 0 -90 -40 -97 -102h183zM387 251c0 96 -34 148 -109 148c-57 0 -113 -44 -113 -146s37 -154 111 -154c63 0 111 51 111 152z" />
    <glyph glyph-name="p" unicode="p" horiz-adv-x="559" 
d="M523 275c0 -173 -90 -282 -262 -282c-24 0 -43 1 -64 4v-238h-128v738h119c0 -24 -1 -57 -5 -83h2c28 58 81 93 156 93c118 0 182 -85 182 -232zM389 261c0 93 -27 141 -85 141c-67 0 -107 -78 -107 -163v-138c20 -6 41 -9 67 -9c72 0 125 46 125 169z" />
    <glyph glyph-name="thorn" unicode="&#xfe;" horiz-adv-x="559" 
d="M523 275c0 -173 -90 -282 -262 -282c-24 0 -43 1 -64 4v-238h-128v971h128v-204c0 -31 -1 -72 -5 -102h2c25 49 74 83 147 83c118 0 182 -85 182 -232zM389 261c0 93 -27 141 -85 141c-67 0 -107 -78 -107 -163v-138c20 -6 41 -9 67 -9c72 0 125 46 125 169z" />
    <glyph glyph-name="q" unicode="q" horiz-adv-x="559" 
d="M489 -241h-127v225c0 27 1 64 7 96l-2 1c-26 -57 -81 -92 -147 -92c-119 0 -184 80 -184 233c0 168 96 284 271 284c70 0 128 -6 182 -15v-732zM362 260v138c-21 4 -42 7 -67 7c-73 0 -125 -46 -125 -169c0 -93 27 -141 84 -141c67 0 108 78 108 165z" />
    <glyph glyph-name="r" unicode="r" horiz-adv-x="355" 
d="M341 507l-6 -125c-92 18 -138 -41 -138 -179v-203h-128v497h121c0 -25 -3 -65 -9 -100h2c24 63 72 118 158 110z" />
    <glyph glyph-name="s" unicode="s" horiz-adv-x="417" 
d="M378 155c0 -99 -87 -165 -219 -165c-39 0 -79 4 -111 13l9 107c30 -13 69 -20 106 -20c48 0 80 21 80 54c0 88 -202 36 -202 205c0 88 67 159 211 159c28 0 62 -4 90 -10l-6 -100c-27 8 -59 13 -90 13c-50 0 -73 -20 -73 -51c0 -84 205 -42 205 -205z" />
    <glyph glyph-name="germandbls" unicode="&#xdf;" horiz-adv-x="607" 
d="M576 157c0 -101 -84 -168 -207 -168c-43 0 -81 5 -106 14l7 105c27 -12 60 -20 91 -20c60 0 83 27 83 56c0 87 -178 75 -178 230c0 117 113 121 113 206c0 38 -29 58 -75 58c-67 0 -107 -43 -107 -138v-500h-128v494c0 177 109 243 240 243c123 0 203 -56 203 -149
c0 -128 -116 -121 -116 -199c0 -85 180 -80 180 -232z" />
    <glyph glyph-name="t" unicode="t" horiz-adv-x="375" 
d="M344 4c-32 -8 -73 -14 -108 -14c-110 0 -144 40 -144 156v252h-86v99h86v153l127 34v-187h121v-99h-121v-218c0 -64 15 -82 59 -82c21 0 40 2 57 7z" />
    <glyph glyph-name="u" unicode="u" horiz-adv-x="570" 
d="M501 0h-120c0 23 1 63 6 89h-1c-30 -58 -87 -99 -169 -99c-112 0 -148 71 -148 158v349h127v-318c0 -51 14 -82 62 -82c65 0 115 73 115 160v240h128v-497z" />
    <glyph glyph-name="v" unicode="v" horiz-adv-x="506" 
d="M500 497l-172 -497h-152l-171 497h138l80 -240c14 -47 24 -84 32 -124h2c8 39 17 77 30 123l78 241h135z" />
    <glyph glyph-name="w" unicode="w" horiz-adv-x="796" 
d="M786 497l-156 -497h-139l-72 220c-10 35 -19 70 -28 112h-1c-10 -46 -21 -84 -34 -125l-63 -207h-132l-152 497h140l53 -188c13 -49 27 -99 39 -150h1c10 55 23 100 36 144l60 194h123l61 -188c17 -57 30 -101 40 -150h2c10 51 21 95 34 144l57 194h131z" />
    <glyph glyph-name="x" unicode="x" horiz-adv-x="528" 
d="M517 0h-161l-96 167l-96 -167h-153l171 251l-161 246h153l96 -164l97 164h142l-156 -245z" />
    <glyph glyph-name="y" unicode="y" horiz-adv-x="502" 
d="M499 497l-197 -525c-65 -172 -135 -221 -250 -221c-21 0 -51 3 -70 7l15 110c19 -6 42 -10 63 -10c42 0 86 20 113 98l16 44l-184 497h143l67 -190c14 -43 28 -92 39 -137h1c11 45 32 112 48 158l59 169h137z" />
    <glyph glyph-name="z" unicode="z" horiz-adv-x="450" 
d="M403 0h-358v91l200 293c-19 -1 -58 -2 -106 -2h-88v115h348v-91l-196 -290c21 1 76 1 113 1h87v-117z" />
    <glyph glyph-name="ordfeminine" unicode="&#xaa;" horiz-adv-x="403" 
d="M341 325h-97c0 14 1 33 4 49l-1 1c-15 -33 -57 -59 -101 -59c-74 0 -106 41 -106 97c0 89 86 130 199 129v15c0 21 -7 47 -58 47c-40 0 -77 -11 -110 -27l-9 86c36 13 83 22 135 22c111 0 143 -56 143 -116v-159c0 -34 0 -61 1 -85zM361 176h-311v99h311v-99zM239 467v10
c-70 0 -103 -15 -103 -50c0 -18 14 -32 37 -32c44 0 66 45 66 72z" />
    <glyph glyph-name="ordmasculine" unicode="&#xba;" horiz-adv-x="426" 
d="M385 506c0 -115 -78 -189 -183 -189c-92 0 -164 49 -164 182c0 115 80 187 180 187c95 0 167 -48 167 -180zM371 176h-318v99h318v-99zM281 504c0 53 -18 92 -69 92c-35 0 -70 -25 -70 -94c0 -50 16 -96 67 -96c39 0 72 26 72 98z" />
    <glyph glyph-name="grave" unicode="`" horiz-adv-x="374" 
d="M296 629l-48 -69l-181 108l59 86z" />
    <glyph glyph-name="acute" unicode="&#xb4;" horiz-adv-x="393" 
d="M333 668l-181 -108l-47 69l169 125z" />
    <glyph glyph-name="circumflex" unicode="&#x2c6;" horiz-adv-x="426" 
d="M365 619l-50 -59l-104 81l-103 -81l-49 58l153 136z" />
    <glyph glyph-name="tilde" unicode="&#x2dc;" horiz-adv-x="463" 
d="M414 666c-29 -57 -70 -89 -121 -89c-67 0 -86 51 -124 51c-22 0 -39 -16 -55 -45l-61 47c29 57 70 89 122 89c66 0 85 -51 123 -51c22 0 39 16 55 45z" />
    <glyph glyph-name="dieresis" unicode="&#xa8;" horiz-adv-x="546" 
d="M434 648c0 -38 -31 -69 -69 -69s-69 31 -69 69c0 39 31 69 69 69s69 -30 69 -69zM232 648c0 -38 -31 -69 -69 -69s-69 31 -69 69c0 39 31 69 69 69s69 -30 69 -69z" />
    <glyph glyph-name="macron" unicode="&#xaf;" horiz-adv-x="395" 
d="M332 600h-269v92h269v-92z" />
    <glyph glyph-name="macron" unicode="&#x2c9;" horiz-adv-x="395" 
d="M332 600h-269v92h269v-92z" />
    <glyph glyph-name="cedilla" unicode="&#xb8;" horiz-adv-x="400" 
d="M256 -40c52 -71 36 -136 -20 -194h-96c48 58 58 101 10 161z" />
    <glyph glyph-name="mu" unicode="&#xb5;" horiz-adv-x="582" 
d="M556 -4c-17 -3 -35 -5 -51 -5c-87 0 -111 41 -113 96h-1c-24 -57 -72 -94 -142 -94c-27 0 -50 8 -64 23l15 -257h-131v738h128v-322c0 -53 19 -78 61 -78c68 0 116 66 116 162v238h127v-318c0 -68 11 -82 55 -82v-101z" />
    <glyph glyph-name="mu" unicode="&#x3bc;" horiz-adv-x="582" 
d="M556 -4c-17 -3 -35 -5 -51 -5c-87 0 -111 41 -113 96h-1c-24 -57 -72 -94 -142 -94c-27 0 -50 8 -64 23l15 -257h-131v738h128v-322c0 -53 19 -78 61 -78c68 0 116 66 116 162v238h127v-318c0 -68 11 -82 55 -82v-101z" />
    <glyph glyph-name="exclam" unicode="!" horiz-adv-x="321" 
d="M244 708l-19 -520h-110l-21 520h150zM247 65c0 -43 -34 -76 -79 -76c-44 0 -78 33 -78 76c0 42 34 76 78 76c45 0 79 -34 79 -76z" />
    <glyph glyph-name="exclamdown" unicode="&#xa1;" horiz-adv-x="321" 
d="M231 432c0 -42 -34 -76 -78 -76s-78 34 -78 76c0 43 34 76 78 76s78 -33 78 -76zM227 -211h-150l19 520h110z" />
    <glyph glyph-name="question" unicode="?" horiz-adv-x="451" 
d="M404 512c0 -167 -198 -165 -150 -324h-125c-64 189 135 210 135 311c0 60 -74 98 -197 102l16 116c220 -5 321 -101 321 -205zM271 65c0 -43 -34 -76 -78 -76s-78 33 -78 76c0 42 34 76 78 76s78 -34 78 -76z" />
    <glyph glyph-name="questiondown" unicode="&#xbf;" horiz-adv-x="451" 
d="M336 432c0 -42 -34 -76 -78 -76s-78 34 -78 76c0 43 34 76 78 76s78 -33 78 -76zM384 -104l-16 -116c-220 5 -321 101 -321 205c0 167 198 165 150 324h125c64 -189 -135 -210 -135 -311c0 -60 74 -98 197 -102z" />
    <glyph glyph-name="comma" unicode="," horiz-adv-x="258" 
d="M128 149c94 0 138 -159 -48 -322l-53 47c69 73 73 116 41 154c-37 44 -10 121 60 121z" />
    <glyph glyph-name="semicolon" unicode=";" horiz-adv-x="298" 
d="M242 354c0 -45 -36 -82 -81 -82s-82 37 -82 82c0 44 37 81 82 81s81 -37 81 -81zM160 149c95 0 139 -159 -47 -322l-53 47c68 73 72 116 41 154c-37 44 -10 121 59 121z" />
    <glyph glyph-name="semicolon" unicode="&#x37e;" horiz-adv-x="298" 
d="M242 354c0 -45 -36 -82 -81 -82s-82 37 -82 82c0 44 37 81 82 81s81 -37 81 -81zM160 149c95 0 139 -159 -47 -322l-53 47c68 73 72 116 41 154c-37 44 -10 121 59 121z" />
    <glyph glyph-name="colon" unicode=":" horiz-adv-x="298" 
d="M242 354c0 -45 -36 -82 -81 -82s-82 37 -82 82c0 44 37 81 82 81s81 -37 81 -81zM242 71c0 -45 -36 -82 -81 -82s-82 37 -82 82c0 44 37 81 82 81s81 -37 81 -81z" />
    <glyph glyph-name="period" unicode="." horiz-adv-x="258" 
d="M211 71c0 -45 -37 -82 -82 -82s-82 37 -82 82c0 44 37 81 82 81s82 -37 82 -81z" />
    <glyph glyph-name="ellipsis" unicode="&#x2026;" horiz-adv-x="723" 
d="M670 67c0 -43 -35 -78 -78 -78s-78 35 -78 78s35 78 78 78s78 -35 78 -78zM437 67c0 -43 -35 -78 -78 -78s-78 35 -78 78s35 78 78 78s78 -35 78 -78zM204 67c0 -43 -36 -78 -79 -78s-78 35 -78 78s35 78 78 78s79 -35 79 -78z" />
    <glyph glyph-name="quoteleft" unicode="&#x2018;" horiz-adv-x="267" 
d="M230 709c-68 -73 -72 -117 -41 -154c38 -44 11 -121 -59 -121c-94 0 -139 159 48 322z" />
    <glyph glyph-name="quoteright" unicode="&#x2019;" horiz-adv-x="267" 
d="M136 747c94 0 139 -159 -48 -322l-53 47c69 73 73 117 41 154c-37 44 -10 121 60 121z" />
    <glyph glyph-name="quotedblleft" unicode="&#x201c;" horiz-adv-x="485" 
d="M449 709c-68 -73 -72 -117 -41 -154c37 -44 10 -121 -59 -121c-95 0 -139 159 47 322zM230 709c-68 -73 -72 -117 -41 -154c38 -44 11 -121 -59 -121c-94 0 -139 159 48 322z" />
    <glyph glyph-name="quotedblright" unicode="&#x201d;" horiz-adv-x="485" 
d="M354 747c95 0 139 -159 -47 -322l-53 47c68 73 72 117 41 154c-37 44 -10 121 59 121zM136 747c94 0 139 -159 -48 -322l-53 47c69 73 73 117 41 154c-37 44 -10 121 60 121z" />
    <glyph glyph-name="quotesinglbase" unicode="&#x201a;" horiz-adv-x="267" 
d="M136 149c94 0 139 -159 -48 -322l-53 47c69 73 73 116 41 154c-37 44 -10 121 60 121z" />
    <glyph glyph-name="quotedblbase" unicode="&#x201e;" horiz-adv-x="485" 
d="M354 149c95 0 139 -159 -47 -322l-53 47c68 73 72 116 41 154c-37 44 -10 121 59 121zM136 149c94 0 139 -159 -48 -322l-53 47c69 73 73 116 41 154c-37 44 -10 121 60 121z" />
    <glyph glyph-name="guilsinglleft" unicode="&#x2039;" horiz-adv-x="312" 
d="M255 148l-101 -48l-113 192l115 195l97 -47l-89 -147z" />
    <glyph glyph-name="guilsinglright" unicode="&#x203a;" horiz-adv-x="312" 
d="M272 295l-116 -195l-97 47l90 147l-91 145l101 48z" />
    <glyph glyph-name="guillemotleft" unicode="&#xab;" horiz-adv-x="534" 
d="M477 150l-100 -47l-118 189l120 192l96 -46l-92 -145zM252 144l-103 -46l-107 194l110 197l98 -45l-85 -151z" />
    <glyph glyph-name="guillemotright" unicode="&#xbb;" horiz-adv-x="534" 
d="M492 295l-110 -197l-99 45l86 151l-87 149l103 46zM275 295l-121 -192l-96 46l93 145l-94 143l100 47z" />
    <glyph glyph-name="slash" unicode="/" horiz-adv-x="463" 
d="M465 757l-350 -918h-126l350 918h126z" />
    <glyph glyph-name="bar" unicode="|" horiz-adv-x="288" 
d="M193 -241h-102v1000h102v-1000z" />
    <glyph glyph-name="brokenbar" unicode="&#xa6;" horiz-adv-x="288" 
d="M193 391h-102v368h102v-368zM193 -241h-102v378h102v-378z" />
    <glyph glyph-name="backslash" unicode="\" horiz-adv-x="479" 
d="M483 -161h-126l-350 918h126z" />
    <glyph glyph-name="hyphen" unicode="-" horiz-adv-x="334" 
d="M290 226h-246v103h246v-103z" />
    <glyph glyph-name="hyphen" unicode="&#xad;" horiz-adv-x="334" 
d="M290 226h-246v103h246v-103z" />
    <glyph glyph-name="uni00AD" horiz-adv-x="334" 
d="M290 226h-246v103h246v-103z" />
    <glyph glyph-name="endash" unicode="&#x2013;" 
d="M550 242h-550v111h550v-111z" />
    <glyph glyph-name="emdash" unicode="&#x2014;" horiz-adv-x="1000" 
d="M889 242h-778v111h778v-111z" />
    <glyph glyph-name="underscore" unicode="_" 
d="M550 -246h-550v103h550v-103z" />
    <glyph glyph-name="bullet" unicode="&#x2022;" horiz-adv-x="423" 
d="M360 297c0 -81 -67 -148 -149 -148s-148 67 -148 148s66 148 148 148s149 -67 149 -148z" />
    <glyph glyph-name="periodcentered" unicode="&#xb7;" horiz-adv-x="269" 
d="M218 298c0 -46 -38 -83 -83 -83c-46 0 -83 37 -83 83c0 45 37 83 83 83c45 0 83 -38 83 -83z" />
    <glyph glyph-name="periodcentered" unicode="&#x2219;" horiz-adv-x="269" 
d="M218 298c0 -46 -38 -83 -83 -83c-46 0 -83 37 -83 83c0 45 37 83 83 83c45 0 83 -38 83 -83z" />
    <glyph glyph-name="parenleft" unicode="(" horiz-adv-x="306" 
d="M297 -170l-97 -45c-112 176 -148 340 -148 500c0 157 39 330 149 502l93 -43c-75 -134 -116 -291 -116 -454c0 -169 40 -323 119 -460z" />
    <glyph glyph-name="parenright" unicode=")" horiz-adv-x="306" 
d="M256 288c0 -158 -39 -331 -149 -503l-93 43c76 134 117 291 117 455c0 169 -41 323 -118 460l97 44c110 -176 146 -339 146 -499z" />
    <glyph glyph-name="bracketleft" unicode="[" horiz-adv-x="328" 
d="M292 -205h-221v982h221v-101h-101v-778h101v-103z" />
    <glyph glyph-name="bracketright" unicode="]" horiz-adv-x="328" 
d="M256 -205h-220v103h100v778h-100v101h220v-982z" />
    <glyph glyph-name="braceleft" unicode="{" horiz-adv-x="362" 
d="M330 -205h-21c-130 0 -182 68 -182 223v135c0 83 -33 108 -100 112v96c68 4 100 24 100 108v87c0 146 50 221 182 221h21v-101c-65 0 -84 -22 -84 -118v-86c0 -106 -36 -148 -92 -158v-2c55 -8 92 -55 92 -161v-134c0 -97 19 -119 84 -119v-103z" />
    <glyph glyph-name="braceright" unicode="}" horiz-adv-x="360" 
d="M338 265c-66 -4 -100 -29 -100 -112v-135c0 -155 -52 -223 -181 -223h-22v103c65 0 85 22 85 119v134c0 106 36 153 92 161v2c-57 8 -92 52 -92 155v89c0 96 -20 118 -85 118v101h22c132 0 181 -75 181 -221v-84c0 -87 32 -107 100 -111v-96z" />
    <glyph glyph-name="asterisk" unicode="*" horiz-adv-x="384" 
d="M350 531l-45 -78l-85 68l16 -108h-91l16 108l-86 -68l-44 78l101 40l-101 40l45 79l85 -68l-16 108h91l-16 -108l85 68l45 -78l-101 -40z" />
    <glyph glyph-name="dagger" unicode="&#x2020;" horiz-adv-x="457" 
d="M416 533h-135l21 -88l-23 -255h-100l-24 255l21 88h-134v99h134l-21 136h147l-21 -136h135v-99z" />
    <glyph glyph-name="daggerdbl" unicode="&#x2021;" horiz-adv-x="457" 
d="M416 287h-134l21 -122h-149l21 122h-133v98h133l-20 81l20 82h-133v98h133l-20 122h147l-20 -122h134v-98h-134l20 -82l-20 -81h134v-98z" />
    <glyph glyph-name="section" unicode="&#xa7;" horiz-adv-x="530" 
d="M458 247c0 -58 -31 -110 -77 -145c22 -27 37 -62 37 -104c0 -82 -62 -165 -225 -165c-23 0 -57 3 -83 10l8 107c27 -8 52 -12 77 -12c59 0 86 27 86 61c0 91 -221 147 -221 326c0 59 28 110 76 145c-24 30 -37 61 -37 104c0 88 59 164 210 164c26 0 57 -2 82 -8l-7 -106
c-24 7 -47 10 -71 10c-54 0 -77 -20 -77 -56c0 -87 222 -154 222 -331zM342 230c0 65 -63 107 -134 176c-22 -17 -32 -41 -32 -64c0 -58 48 -100 135 -175c21 16 31 40 31 63z" />
    <glyph glyph-name="paragraph" unicode="&#xb6;" horiz-adv-x="595" 
d="M544 573h-65v-669h-179v102h70v669h174v-102zM293 231c-166 -1 -239 102 -239 223c0 134 98 221 239 221v-444z" />
    <glyph glyph-name="asciicircum" unicode="^" 
d="M488 383l-92 -46l-131 247l-125 -247l-85 45l164 293h98z" />
    <glyph glyph-name="asciitilde" unicode="~" 
d="M509 566c0 -96 -58 -160 -151 -160c-114 0 -117 104 -174 104c-32 0 -46 -28 -47 -80h-95v18c0 96 58 160 151 160c114 0 117 -105 174 -105c32 0 46 28 47 81h95v-18z" />
    <glyph glyph-name="quotesingle" unicode="'" horiz-adv-x="216" 
d="M172 702l-16 -254h-96l-16 254h128z" />
    <glyph glyph-name="quotedbl" unicode="&#x22;" horiz-adv-x="405" 
d="M361 702l-17 -254h-95l-16 254h128zM172 702l-16 -254h-96l-16 254h128z" />
    <glyph glyph-name="ampersand" unicode="&#x26;" horiz-adv-x="797" 
d="M755 74l-84 -97c-45 31 -102 72 -137 100c-64 -51 -152 -88 -260 -88c-156 0 -227 91 -227 198c0 87 51 149 127 208c-61 72 -85 120 -85 178c0 89 70 165 199 165c115 0 178 -59 178 -147c0 -70 -37 -129 -119 -193c48 -48 117 -110 181 -160v-1c40 61 63 141 60 221
h127c2 -105 -30 -209 -91 -290c44 -33 95 -70 131 -94zM340 582c0 33 -19 60 -62 60c-37 0 -63 -26 -63 -62c0 -28 15 -61 57 -110c42 36 68 70 68 112zM440 147c-68 55 -145 125 -191 172c-49 -42 -69 -78 -69 -116c0 -55 43 -105 116 -105c59 0 108 22 144 49z" />
    <glyph glyph-name="at" unicode="@" horiz-adv-x="970" 
d="M881 413c0 -186 -103 -283 -241 -283c-74 0 -107 43 -105 96h-3c-21 -43 -75 -96 -141 -96c-63 0 -101 48 -101 143c0 148 74 267 234 267c46 0 93 -9 122 -20l-35 -198c-12 -67 3 -92 44 -92c62 0 111 53 111 177c0 116 -67 227 -250 227c-178 0 -320 -137 -320 -341
c0 -168 90 -270 284 -270c58 0 118 10 175 29l19 -100c-66 -22 -148 -34 -210 -34c-250 0 -384 142 -384 362c0 265 196 456 443 456c238 0 358 -145 358 -323zM538 449c-13 4 -28 6 -44 6c-70 0 -105 -95 -105 -161c0 -45 10 -65 32 -65c37 0 84 54 108 176z" />
    <glyph glyph-name="copyright" unicode="&#xa9;" horiz-adv-x="762" 
d="M722 334c0 -189 -153 -342 -342 -342c-192 0 -342 152 -342 341s153 342 342 342s342 -152 342 -341zM625 333c0 135 -109 247 -245 247s-246 -110 -246 -246s110 -247 246 -247s245 110 245 246zM480 177c-30 -14 -64 -20 -102 -20c-102 0 -161 68 -161 173
c0 97 53 182 176 182c33 0 60 -6 82 -15l-14 -85c-15 10 -39 17 -63 17c-53 0 -75 -38 -75 -97c0 -57 24 -87 70 -87c25 0 49 4 70 14z" />
    <glyph glyph-name="registered" unicode="&#xae;" horiz-adv-x="564" 
d="M516 530c0 -128 -106 -230 -234 -230c-131 0 -234 101 -234 230s105 231 234 231c130 0 234 -100 234 -231zM438 530c0 86 -70 158 -156 158c-87 0 -157 -70 -157 -157c0 -86 70 -158 157 -158c86 0 156 70 156 157zM377 420h-72l-38 85h-7v-85h-60v223h93
c55 0 79 -25 79 -62c0 -35 -17 -55 -45 -63c5 -6 11 -15 17 -27zM306 573c0 16 -9 24 -30 24h-16v-51h11c24 0 35 12 35 27z" />
    <glyph glyph-name="trademark" unicode="&#x2122;" horiz-adv-x="689" 
d="M654 394h-95l-18 121l-5 47l-9 -43l-33 -125h-85l-33 128l-8 40l-2 -36l-19 -132h-86l45 281h109l34 -123l8 -41l7 39l34 125h110zM253 598h-65v-204h-91v204h-68v77h224v-77z" />
    <glyph glyph-name="degree" unicode="&#xb0;" horiz-adv-x="388" 
d="M340 604c0 -92 -76 -142 -154 -142c-89 0 -144 53 -144 139c0 89 77 141 151 141c104 0 147 -64 147 -138zM245 604c0 27 -16 58 -53 58c-32 0 -55 -24 -55 -60c0 -37 22 -59 54 -59c33 0 54 26 54 61z" />
    <glyph glyph-name="currency" unicode="&#xa4;" 
d="M515 118l-98 -71l-77 103c-22 -10 -48 -16 -74 -16c-21 0 -39 3 -55 9l-69 -95l-99 70l68 85c-21 30 -34 70 -34 123c0 49 14 91 39 123l-72 92l97 69l71 -97c22 9 47 13 72 13c21 0 44 -3 64 -11l70 96l97 -71l-71 -89c18 -27 29 -64 29 -115c0 -47 -14 -87 -37 -119z
M361 334c0 62 -25 99 -87 99c-45 0 -85 -35 -85 -102c0 -59 25 -104 86 -104c44 0 86 33 86 107z" />
    <glyph glyph-name="Euro" unicode="&#x20ac;" horiz-adv-x="592" 
d="M565 40c-48 -30 -112 -51 -189 -51c-166 0 -263 78 -286 231h-78v77h72v19c0 20 1 39 2 57h-74v77h83c33 158 144 236 296 236c64 0 127 -16 165 -36l-30 -103c-33 19 -84 33 -136 33c-78 0 -134 -40 -153 -130h194v-77h-206c0 -11 -1 -23 -1 -35c0 -15 0 -28 1 -41h206
v-77h-196c15 -79 63 -125 159 -125c41 0 96 16 137 42z" />
    <glyph glyph-name="dollar" unicode="$" horiz-adv-x="494" 
d="M448 185c0 -91 -62 -166 -165 -189v-122h-92v115c-45 1 -82 6 -121 13l9 116c39 -14 88 -21 127 -21c63 0 107 22 107 75c0 111 -267 63 -267 270c0 89 63 159 158 177v101h91v-94c35 -1 70 -5 102 -12l-8 -109c-40 11 -79 17 -111 17c-73 0 -100 -31 -100 -67
c0 -104 270 -66 270 -270z" />
    <glyph glyph-name="cent" unicode="&#xa2;" horiz-adv-x="454" 
d="M409 55c-26 -10 -57 -18 -90 -21v-102h-96v102c-121 15 -183 105 -183 235c0 126 68 223 183 245v93h96v-86c28 -2 59 -7 89 -17l-12 -108c-28 14 -59 21 -96 21c-77 0 -128 -51 -128 -141c0 -78 36 -135 126 -135c38 0 72 10 102 25z" />
    <glyph glyph-name="sterling" unicode="&#xa3;" horiz-adv-x="476" 
d="M451 0h-409v89c62 44 88 86 88 151c0 13 0 31 -4 61h-97v98h86c-5 31 -11 70 -11 101c0 123 75 187 204 187c36 0 80 -5 111 -15l-22 -105c-24 9 -54 15 -82 15c-50 0 -82 -26 -82 -82c0 -23 5 -61 10 -101h135v-98h-123c2 -20 2 -28 2 -49c0 -61 -20 -106 -67 -147
c24 4 75 6 107 6h154v-111z" />
    <glyph glyph-name="florin" unicode="&#x192;" horiz-adv-x="454" 
d="M253 324l-22 -219c-21 -200 -85 -270 -224 -270c-24 0 -51 3 -74 9l19 111c17 -6 41 -13 64 -13c54 0 74 30 85 135l24 247h-111v98h120l11 99c15 146 80 219 212 219c20 0 49 -2 72 -7l-14 -105c-18 5 -43 8 -62 8c-46 0 -73 -27 -81 -106l-10 -108h144v-98h-153z" />
    <glyph glyph-name="yen" unicode="&#xa5;" horiz-adv-x="601" 
d="M581 675l-186 -366h124v-81h-155v-58h155v-83h-155v-87h-129v87h-155v83h155v58h-155v81h125l-183 366h142l89 -184c20 -41 35 -78 47 -113h2c14 41 33 84 55 126l87 171h137z" />
    <glyph glyph-name="numbersign" unicode="#" horiz-adv-x="583" 
d="M555 411h-88l-15 -143h80v-90h-90l-18 -178h-102l19 178h-132l-19 -178h-102l19 178h-79v90h88l16 143h-80v89h89l18 175h102l-19 -175h132l19 175h102l-19 -175h79v-89zM365 411h-131l-16 -143h132z" />
    <glyph glyph-name="zero" unicode="0" horiz-adv-x="589" 
d="M553 345c0 -240 -124 -354 -267 -354c-172 0 -250 118 -250 339c0 239 124 354 267 354c172 0 250 -119 250 -339zM417 336c0 169 -40 241 -121 241c-71 0 -124 -64 -124 -239c0 -168 40 -240 121 -240c71 0 124 64 124 238z" />
    <glyph glyph-name="one" unicode="1" horiz-adv-x="359" 
d="M286 0h-132v542l-116 -46l-19 122l166 57h101v-675z" />
    <glyph glyph-name="two" unicode="2" horiz-adv-x="498" 
d="M458 0h-408v108l101 114c118 129 145 197 145 252c0 53 -32 94 -97 94c-43 0 -90 -17 -125 -38l-19 116c45 22 103 39 179 39c137 0 204 -84 204 -189c0 -88 -44 -180 -159 -306l-60 -70v-1c70 4 148 4 239 4v-123z" />
    <glyph glyph-name="three" unicode="3" horiz-adv-x="473" 
d="M429 210c0 -131 -114 -220 -274 -220c-41 0 -85 5 -113 13l14 112c27 -10 63 -14 102 -14c84 0 133 43 133 101c0 54 -43 95 -143 95c-29 0 -51 -2 -70 -5v103c144 -4 193 43 193 102c0 47 -31 80 -95 80c-39 0 -76 -11 -111 -28l-10 107c42 17 99 29 155 29
c129 0 196 -69 196 -162c0 -74 -43 -129 -108 -153l-1 -2c82 -20 132 -81 132 -158z" />
    <glyph glyph-name="four" unicode="4" horiz-adv-x="554" 
d="M536 148h-101v-148h-126v148h-283l-9 102l246 425h172v-410h101v-117zM311 263v295h-1l-172 -297c44 2 141 2 173 2z" />
    <glyph glyph-name="five" unicode="5" horiz-adv-x="461" 
d="M429 229c0 -144 -119 -237 -286 -237c-33 0 -73 4 -100 10l13 114c25 -9 59 -13 94 -13c91 0 144 46 144 113c0 66 -52 102 -165 102c-22 0 -45 -1 -64 -4v361h333v-122l-213 1v-134c157 1 244 -70 244 -191z" />
    <glyph glyph-name="six" unicode="6" horiz-adv-x="578" 
d="M541 231c0 -145 -104 -242 -254 -242c-167 0 -235 136 -235 294c0 269 153 401 348 401c33 0 60 -1 79 -4v-115c-28 7 -53 9 -81 9c-100 0 -173 -49 -202 -162c-3 -13 -6 -26 -8 -34l1 -1c31 31 80 55 145 55c129 0 207 -81 207 -201zM406 213c0 69 -36 113 -105 113
c-67 0 -109 -49 -109 -105c0 -75 38 -123 106 -123c66 0 108 47 108 115z" />
    <glyph glyph-name="seven" unicode="7" horiz-adv-x="459" 
d="M435 565c-76 -168 -144 -390 -180 -565h-143c43 196 124 430 179 552c-38 -1 -189 -2 -269 -2v125h413v-110z" />
    <glyph glyph-name="eight" unicode="8" horiz-adv-x="557" 
d="M514 183c0 -129 -115 -195 -247 -195c-142 0 -225 71 -225 178c0 78 56 133 122 174c-69 39 -111 90 -111 158c0 117 99 191 235 191c129 0 212 -71 212 -166c0 -76 -53 -125 -115 -167c73 -41 129 -93 129 -173zM369 512c0 39 -29 74 -91 74c-61 0 -95 -31 -95 -75
s37 -72 98 -104c59 37 88 67 88 105zM380 174c0 53 -53 84 -113 115c-50 -32 -91 -63 -91 -111c0 -51 38 -84 103 -84c57 0 101 30 101 80z" />
    <glyph glyph-name="nine" unicode="9" horiz-adv-x="581" 
d="M530 393c0 -256 -122 -403 -354 -403c-31 0 -62 2 -90 7v116c34 -10 71 -13 100 -13c97 0 161 48 186 143c6 17 9 35 13 48l-1 1c-25 -31 -74 -56 -139 -56c-125 0 -203 81 -203 207c0 139 102 243 247 243c175 0 241 -138 241 -293zM386 451c0 80 -40 125 -104 125
c-63 0 -107 -46 -107 -116c0 -67 36 -112 104 -112c66 0 107 54 107 103z" />
    <glyph glyph-name="onesuperior" unicode="&#xb9;" horiz-adv-x="296" 
d="M235 358h-123v324l-82 -30l-19 94l119 42h105v-430z" />
    <glyph glyph-name="twosuperior" unicode="&#xb2;" horiz-adv-x="372" 
d="M337 358h-302v86l72 73c48 49 90 93 90 133c0 32 -19 53 -59 53c-26 0 -61 -9 -84 -20l-15 89c33 14 87 24 130 24c94 0 155 -39 155 -122c0 -70 -31 -114 -83 -170l-50 -51c39 2 90 2 146 2v-97z" />
    <glyph glyph-name="threesuperior" unicode="&#xb3;" horiz-adv-x="364" 
d="M323 493c0 -87 -75 -143 -194 -143c-30 0 -73 5 -101 11l13 80c21 -7 55 -10 80 -10c50 0 81 21 81 55c0 39 -48 63 -144 51v76c85 0 133 19 133 61c0 28 -22 43 -60 43c-24 0 -60 -5 -86 -17l-11 77c34 12 87 19 125 19c96 0 150 -36 150 -107c0 -50 -22 -79 -62 -97
c53 -15 76 -54 76 -99z" />
    <glyph glyph-name="onehalf" unicode="&#xbd;" horiz-adv-x="858" 
d="M759 754l-651 -904l-79 54l652 905zM235 358h-123v324l-82 -30l-19 94l119 42h105v-430zM816 -112h-301v86l72 73c48 49 89 93 89 133c0 32 -18 53 -58 53c-26 0 -61 -9 -84 -20l-16 89c34 14 88 24 131 24c93 0 154 -39 154 -122c0 -70 -30 -114 -82 -170l-50 -51
c39 2 90 2 145 2v-97z" />
    <glyph glyph-name="onequarter" unicode="&#xbc;" horiz-adv-x="850" 
d="M235 358h-123v324l-82 -30l-19 94l119 42h105v-430zM759 754l-651 -904l-79 54l652 905zM819 -22h-63v-90h-108v90h-196l-8 79l147 261h165v-250h63v-90zM647 67v181l-100 -182c27 1 80 1 100 1z" />
    <glyph glyph-name="threequarters" unicode="&#xbe;" horiz-adv-x="868" 
d="M778 754l-652 -904l-78 54l651 905zM323 493c0 -87 -75 -143 -194 -143c-30 0 -73 5 -101 11l13 80c21 -7 55 -10 80 -10c50 0 81 21 81 55c0 39 -48 63 -144 51v76c85 0 133 19 133 61c0 28 -22 43 -60 43c-24 0 -60 -5 -86 -17l-11 77c34 12 87 19 125 19
c96 0 150 -36 150 -107c0 -50 -22 -79 -62 -97c53 -15 76 -54 76 -99zM837 -22h-62v-90h-108v90h-197l-7 79l147 261h165v-250h62v-90zM665 67v181l-99 -182c26 1 79 1 99 1z" />
    <glyph glyph-name="percent" unicode="%" horiz-adv-x="760" 
d="M722 154c0 -99 -69 -165 -157 -165c-97 0 -148 59 -148 156c0 96 67 163 156 163c92 0 149 -51 149 -154zM669 638l-501 -660l-80 57l501 661zM343 534c0 -99 -68 -166 -157 -166c-97 0 -148 60 -148 156s68 163 157 163c91 0 148 -51 148 -153zM625 148
c0 58 -19 79 -55 79c-32 0 -56 -28 -56 -77c0 -59 20 -81 57 -81c30 0 54 29 54 79zM247 527c0 59 -19 80 -56 80c-31 0 -55 -29 -55 -78c0 -59 20 -81 56 -81c31 0 55 29 55 79z" />
    <glyph glyph-name="perthousand" unicode="&#x2030;" horiz-adv-x="1052" 
d="M329 536c0 -103 -69 -164 -149 -164c-85 0 -140 52 -140 152c0 101 69 162 149 162c79 0 140 -44 140 -150zM237 530c0 56 -17 76 -51 76c-30 0 -53 -28 -53 -77c0 -56 19 -77 51 -77c31 0 53 28 53 78zM655 635l-519 -655l-76 59l519 655zM677 153
c0 -103 -70 -164 -149 -164c-85 0 -140 52 -140 152c0 101 69 162 148 162c80 0 141 -44 141 -150zM584 147c0 56 -17 76 -50 76c-31 0 -53 -28 -53 -77c0 -57 19 -77 51 -77c30 0 52 28 52 78zM1005 153c0 -103 -70 -164 -149 -164c-85 0 -140 52 -140 152
c0 101 69 162 148 162s141 -44 141 -150zM912 147c0 56 -17 76 -50 76c-31 0 -53 -28 -53 -77c0 -57 19 -77 51 -77c30 0 52 28 52 78z" />
    <glyph glyph-name="zero.basic" 
d="M514 330c0 -241 -115 -341 -245 -341c-146 0 -234 78 -234 339c0 227 101 333 245 333c148 0 234 -86 234 -331zM376 326c0 183 -33 227 -102 227c-59 0 -101 -49 -101 -221c0 -181 28 -233 102 -233c64 0 101 58 101 227z" />
    <glyph glyph-name="one.basic" 
d="M504 0h-438v115h163v403l-145 -57l-21 121l200 68h99v-535h142v-115z" />
    <glyph glyph-name="two.basic" 
d="M493 0h-442v104l98 96c155 148 179 194 179 247c0 55 -38 97 -109 97c-54 0 -104 -22 -138 -46l-25 114c50 29 118 49 191 49c154 0 222 -92 222 -192c0 -86 -32 -154 -162 -273l-78 -74v-1c46 1 111 2 184 2h80v-123z" />
    <glyph glyph-name="three.basic" 
d="M484 207c0 -138 -117 -218 -289 -218c-49 0 -98 7 -130 16l13 110c38 -13 78 -19 125 -19c98 0 143 41 143 97c0 55 -44 92 -142 92c-37 0 -67 -2 -102 -6v99h29c122 0 203 30 203 99c0 48 -37 78 -108 78c-55 0 -102 -14 -139 -33l-12 108c50 19 108 31 177 31
c146 0 216 -67 216 -160c0 -75 -42 -125 -113 -146l-1 -3c76 -9 130 -71 130 -145z" />
    <glyph glyph-name="four.basic" 
d="M529 141h-90v-141h-126v141h-283l-12 106l247 403h174v-394h90v-115zM315 256v266h-1l-167 -268c44 2 137 2 168 2z" />
    <glyph glyph-name="five.basic" 
d="M489 217c0 -139 -115 -228 -286 -228c-47 0 -86 5 -124 14v115c39 -12 79 -19 133 -19c87 0 136 41 136 105s-57 98 -148 98c-44 0 -84 -3 -113 -8v356h374v-120h-252v-128c12 1 27 1 39 1c155 0 241 -78 241 -186z" />
    <glyph glyph-name="six.basic" 
d="M515 223c0 -146 -95 -234 -237 -234c-146 0 -238 93 -238 284c0 260 135 387 340 387c26 0 55 -1 76 -4v-111c-27 5 -52 7 -82 7c-111 0 -172 -59 -197 -161c-3 -9 -6 -22 -9 -40h1c31 40 81 63 143 63c132 0 203 -85 203 -191zM386 203c0 66 -36 106 -105 106
c-67 0 -106 -51 -106 -99c0 -66 37 -117 110 -117c64 0 101 46 101 110z" />
    <glyph glyph-name="seven.basic" 
d="M499 540c-91 -174 -172 -382 -222 -540h-147c57 174 144 383 221 527c-29 -1 -137 -2 -215 -2h-86v125h449v-110z" />
    <glyph glyph-name="eight.basic" 
d="M509 179c0 -123 -110 -190 -241 -190c-141 0 -228 66 -228 170c0 78 56 126 120 166c-63 35 -104 80 -104 153c0 110 94 183 226 183c133 0 212 -68 212 -162c0 -71 -48 -118 -106 -155c63 -35 121 -80 121 -165zM365 488c0 43 -32 74 -92 74c-58 0 -88 -34 -88 -73
c0 -43 33 -68 96 -98c47 27 84 55 84 97zM377 167c0 55 -51 82 -112 109c-50 -29 -92 -59 -92 -107c0 -45 36 -78 106 -78c56 0 98 29 98 76z" />
    <glyph glyph-name="nine.basic" 
d="M508 377c0 -263 -135 -387 -340 -387c-28 0 -62 2 -92 7v113c33 -8 67 -12 100 -12c108 0 168 53 192 154c3 14 6 24 9 39h-1c-31 -35 -79 -57 -139 -57c-131 0 -203 85 -203 195c0 144 99 232 237 232c144 0 237 -89 237 -284zM370 440c0 68 -37 117 -108 117
c-63 0 -100 -48 -100 -109c0 -67 37 -108 103 -108c68 0 105 46 105 100z" />
    <glyph glyph-name="Euro.basic" 
d="M521 21c-49 -21 -111 -32 -168 -32c-144 0 -235 63 -261 221h-81v79h74c-1 9 -1 18 -1 27c0 16 1 31 1 47h-74v79h87c29 127 113 219 278 219c47 0 100 -10 139 -25l-30 -102c-32 15 -76 26 -119 26c-77 0 -118 -49 -136 -118h165v-79h-180v-37v-37h180v-79h-168
c18 -82 63 -118 146 -118c40 0 81 10 119 26z" />
    <glyph glyph-name="dollar.basic" 
d="M473 209c0 -89 -62 -164 -165 -188v-106h-92v100c-45 1 -83 5 -121 12l10 115c39 -14 87 -21 126 -21c63 0 107 24 107 75c0 107 -267 60 -267 263c0 86 63 157 158 176v95h91v-88c35 -1 71 -5 104 -12l-11 -109c-39 12 -78 17 -110 17c-73 0 -100 -32 -100 -67
c0 -100 270 -64 270 -262z" />
    <glyph glyph-name="cent.basic" 
d="M474 128c-32 -15 -73 -26 -110 -30v-98h-96v98c-130 13 -195 99 -195 228c0 124 70 211 195 237v87h96v-83c32 -1 72 -9 103 -21l-26 -103c-28 13 -65 22 -102 22c-80 0 -132 -47 -132 -133c0 -78 46 -128 132 -128c38 0 74 9 104 26z" />
    <glyph glyph-name="sterling.basic" 
d="M490 0h-422v87c53 43 79 87 79 136c0 16 -1 34 -4 51h-95v99h82c-4 29 -8 58 -8 85c0 148 86 203 221 203c33 0 83 -6 123 -16l-26 -107c-29 10 -67 19 -104 19c-57 0 -85 -31 -85 -88c0 -31 5 -64 9 -96h151v-99h-139c3 -16 4 -31 4 -47c0 -51 -19 -85 -57 -119
c21 1 47 2 73 2h198v-110z" />
    <glyph glyph-name="florin.basic" 
d="M518 692l-15 -109c-28 10 -60 15 -84 15c-57 0 -82 -29 -90 -105l-11 -120h141v-99h-151l-20 -216c-14 -152 -92 -219 -227 -219c-26 0 -62 4 -91 11l15 108c26 -7 61 -14 86 -14c54 0 82 29 89 104l21 226h-114v99h123l11 111c15 153 92 219 227 219c27 0 62 -5 90 -11z
" />
    <glyph glyph-name="yen.basic" 
d="M531 650l-161 -330h124v-82h-155v-59h155v-81h-155v-98h-129v98h-155v81h155v59h-155v82h124l-159 330h141l75 -167c15 -36 29 -73 39 -101h1c11 30 28 71 43 104l74 164h138z" />
    <glyph glyph-name="numbersign.basic" 
d="M523 396h-85l-13 -137h75v-88h-84l-19 -171h-93l18 171h-126l-18 -171h-93l18 171h-76v88h85l14 137h-76v87h85l18 167h93l-18 -167h127l17 167h93l-17 -167h75v-87zM345 396h-126l-13 -137h126z" />
    <glyph glyph-name="percent.basic" horiz-adv-x="760" 
d="M722 154c0 -99 -69 -165 -157 -165c-97 0 -148 59 -148 156c0 96 67 163 156 163c92 0 149 -51 149 -154zM669 613l-501 -635l-80 57l501 635zM343 508c0 -99 -68 -166 -157 -166c-97 0 -148 60 -148 157c0 96 68 162 157 162c91 0 148 -50 148 -153zM625 148
c0 58 -19 79 -55 79c-32 0 -56 -28 -56 -77c0 -59 20 -81 57 -81c30 0 54 29 54 79zM247 502c0 58 -19 79 -56 79c-31 0 -55 -29 -55 -78c0 -58 20 -80 56 -80c31 0 55 29 55 79z" />
    <glyph glyph-name="perthousand.basic" horiz-adv-x="1052" 
d="M329 512c0 -103 -69 -165 -149 -165c-85 0 -140 52 -140 153c0 100 69 161 149 161c79 0 140 -43 140 -149zM237 505c0 56 -17 76 -51 76c-30 0 -53 -28 -53 -77c0 -56 19 -77 51 -77c31 0 53 28 53 78zM655 610l-519 -630l-76 59l519 630zM677 153
c0 -103 -70 -164 -149 -164c-85 0 -140 52 -140 152c0 101 69 162 148 162c80 0 141 -44 141 -150zM584 147c0 56 -17 76 -50 76c-31 0 -53 -28 -53 -77c0 -57 19 -77 51 -77c30 0 52 28 52 78zM1005 153c0 -103 -70 -164 -149 -164c-85 0 -140 52 -140 152
c0 101 69 162 148 162s141 -44 141 -150zM912 147c0 56 -17 76 -50 76c-31 0 -53 -28 -53 -77c0 -57 19 -77 51 -77c30 0 52 28 52 78z" />
    <glyph glyph-name="zero.onum" horiz-adv-x="608" 
d="M567 266c0 -174 -126 -277 -273 -277c-139 0 -252 73 -252 265c0 173 127 277 269 277c189 0 256 -130 256 -265zM439 263c0 93 -44 160 -133 160c-75 0 -137 -60 -137 -160c0 -94 41 -164 134 -164c73 0 136 62 136 164z" />
    <glyph glyph-name="one.onum" horiz-adv-x="342" 
d="M268 0h-131v400l-102 -42l-20 106l154 58h99v-522z" />
    <glyph glyph-name="two.onum" horiz-adv-x="481" 
d="M438 0h-393v104l98 81c98 72 135 113 135 161c0 45 -30 77 -88 77c-43 0 -91 -18 -119 -36l-18 108c46 21 103 36 167 36c130 0 199 -66 199 -161c0 -75 -44 -140 -126 -200l-73 -58l-1 -3c54 4 132 4 219 4v-113z" />
    <glyph glyph-name="three.onum" horiz-adv-x="458" 
d="M417 47c0 -126 -101 -233 -284 -233c-34 0 -72 4 -101 12l11 112c24 -8 60 -15 94 -15c91 0 142 47 142 111c0 82 -86 112 -210 98v103c132 -1 197 39 197 109c0 48 -35 81 -96 81c-39 0 -79 -11 -113 -29l-12 106c47 19 98 29 151 29c139 0 205 -75 205 -163
c0 -72 -45 -130 -110 -159v-1c80 -17 126 -83 126 -161z" />
    <glyph glyph-name="four.onum" horiz-adv-x="554" 
d="M540 0h-106v-181h-126v181h-271l-21 104l256 416h162v-405h106v-115zM310 115v281h-1l-170 -283c43 2 141 2 171 2z" />
    <glyph glyph-name="five.onum" horiz-adv-x="463" 
d="M424 64c0 -144 -128 -250 -302 -250c-29 0 -58 3 -83 7l13 114c21 -4 50 -8 78 -8c106 0 158 54 158 119c0 73 -57 113 -168 113c-17 0 -37 -1 -56 -3v364h338v-125l-217 1v-132c150 0 239 -79 239 -200z" />
    <glyph glyph-name="six.onum" horiz-adv-x="581" 
d="M543 231c0 -141 -104 -242 -256 -242c-143 0 -235 101 -235 288c0 271 147 425 368 425c15 0 41 -1 57 -2v-113c-21 3 -45 5 -66 5c-117 0 -188 -67 -216 -174c-2 -9 -5 -19 -8 -32l1 -1c29 37 82 60 146 60c130 0 209 -84 209 -214zM408 217c0 75 -40 118 -104 118
c-72 0 -109 -53 -109 -109c0 -70 34 -128 105 -128c69 0 108 51 108 119z" />
    <glyph glyph-name="seven.onum" horiz-adv-x="458" 
d="M435 412c-72 -171 -141 -375 -188 -593h-143c48 205 115 407 187 578c-37 -1 -163 -2 -269 -2v125h413v-108z" />
    <glyph glyph-name="eight.onum" horiz-adv-x="557" 
d="M513 187c0 -129 -112 -198 -246 -198c-141 0 -223 73 -223 180c0 91 65 143 122 180l-1 1c-70 41 -113 95 -113 169c0 114 96 189 230 189c135 0 218 -67 218 -168c0 -72 -40 -122 -116 -172c64 -38 129 -90 129 -181zM368 528c0 41 -31 76 -91 76c-58 0 -91 -34 -91 -79
c0 -44 36 -73 96 -106l1 -1c57 38 85 67 85 110zM377 178c0 53 -44 86 -109 119h-1c-50 -31 -88 -67 -88 -114c0 -52 38 -87 99 -87c57 0 99 32 99 82z" />
    <glyph glyph-name="nine.onum" horiz-adv-x="581" 
d="M530 240c0 -259 -128 -426 -377 -426c-17 0 -43 1 -66 6v116c20 -6 50 -10 71 -10c125 0 190 53 219 161c3 10 7 31 8 44h-1c-28 -35 -80 -58 -142 -58c-126 0 -204 85 -204 212c0 143 102 246 250 246c141 0 242 -88 242 -291zM385 295c0 73 -36 127 -106 127
c-65 0 -107 -53 -107 -119c0 -75 36 -118 105 -118c68 0 108 51 108 110z" />
    <glyph glyph-name="plus" unicode="+" 
d="M511 244h-176v-186h-121v186h-175v107h175v185h121v-185h176v-107z" />
    <glyph glyph-name="minus" unicode="&#x2212;" 
d="M511 242h-472v111h472v-111z" />
    <glyph glyph-name="multiply" unicode="&#xd7;" 
d="M503 147l-78 -78l-154 154l-154 -154l-70 70l154 154l-154 154l78 78l154 -154l154 154l70 -70l-154 -154z" />
    <glyph glyph-name="divide" unicode="&#xf7;" 
d="M352 498c0 -43 -35 -78 -78 -78s-78 35 -78 78s35 78 78 78s78 -35 78 -78zM511 244h-472v107h472v-107zM352 97c0 -43 -35 -78 -78 -78s-78 35 -78 78s35 78 78 78s78 -35 78 -78z" />
    <glyph glyph-name="equal" unicode="=" 
d="M497 341h-444v103h444v-103zM497 150h-444v103h444v-103z" />
    <glyph glyph-name="notequal" unicode="&#x2260;" horiz-adv-x="564" 
d="M510 150h-229l-48 -121h-114l48 121h-114v103h154l35 88h-189v103h229l48 121h115l-48 -121h113v-103h-154l-35 -88h189v-103z" />
    <glyph glyph-name="less" unicode="&#x3c;" 
d="M466 93l-84 -87l-319 295l318 294l84 -84l-237 -209z" />
    <glyph glyph-name="greater" unicode="&#x3e;" 
d="M487 300l-318 -294l-84 84l237 209l-238 209l84 87z" />
    <glyph glyph-name="plusminus" unicode="&#xb1;" 
d="M511 346h-175v-183h-122v183h-175v106h175v182h122v-182h175v-106zM507 0h-464v107h464v-107z" />
    <glyph glyph-name="logicalnot" unicode="&#xac;" 
d="M489 95h-113v149h-337v107h450v-256z" />
    <glyph glyph-name="comma.arabic" unicode="&#x60c;" horiz-adv-x="258" 
d="M129 -11c-94 0 -138 159 48 322l53 -47c-69 -73 -73 -116 -41 -154c37 -44 10 -121 -60 -121z" />
    <glyph glyph-name="uni0615" unicode="&#x615;" horiz-adv-x="351" 
d="M8 739v56h46v185h69v-70c0 -8 -1 -32 -4 -43h1c18 30 55 48 92 48c76 0 105 -47 80 -176h-284zM123 795h100c10 40 1 64 -25 64c-33 0 -61 -27 -75 -64z" />
    <glyph glyph-name="semicolon.arabic" unicode="&#x61b;" horiz-adv-x="298" 
d="M56 71c0 44 37 81 82 81c44 0 81 -37 81 -81c0 -45 -37 -82 -81 -82c-45 0 -82 37 -82 82zM138 275c-94 0 -139 160 48 322l52 -47c-68 -73 -72 -116 -41 -153c38 -45 11 -122 -59 -122z" />
    <glyph glyph-name="questionmark.arabic" unicode="&#x61f;" horiz-adv-x="459" 
d="M337 192h-128c3 10 7 28 7 40c0 119 -158 148 -158 293c0 111 80 198 253 198c31 0 62 -2 91 -9l-21 -110c-28 6 -56 10 -79 10c-73 0 -104 -38 -104 -80c0 -93 149 -136 149 -280c0 -21 -4 -43 -10 -62zM269 -11c-44 0 -78 33 -78 76c0 42 34 76 78 76
c45 0 79 -34 79 -76c0 -43 -34 -76 -79 -76z" />
    <glyph glyph-name="kashida" unicode="&#x640;" horiz-adv-x="108" 
d="M0 0v104h119v-104h-119z" />
    <glyph glyph-name="madda" unicode="&#x653;" horiz-adv-x="0" 
d="M-105 0l-46 63l105 78c14 -13 53 -39 94 -39c48 0 87 27 104 41v-96c-16 -13 -54 -38 -110 -38c-47 0 -77 21 -89 32z" />
    <glyph glyph-name="hamza_above" unicode="&#x654;" horiz-adv-x="0" 
d="M-129 0v69c24 0 46 -1 59 -4c-11 6 -18 24 -18 39c0 56 36 106 141 106c27 0 52 -3 59 -5l-12 -69c-5 1 -26 5 -49 5c-32 0 -49 -14 -49 -34c0 -22 18 -38 70 -38h57v-69h-258z" />
    <glyph glyph-name="hamza_below" unicode="&#x655;" horiz-adv-x="0" 
d="M-126 -205v73c18 0 36 -1 49 -4c-7 6 -13 18 -13 33c0 54 42 103 139 103c26 0 52 -3 59 -5l-12 -72c-7 1 -27 5 -48 5c-28 0 -44 -12 -44 -29c0 -20 17 -31 63 -31h59v-73h-252z" />
    <glyph glyph-name="alef_subscript" unicode="&#x656;" horiz-adv-x="0" 
d="M-47 -192v192h95v-177z" />
    <glyph glyph-name="uni0658" unicode="&#x658;" horiz-adv-x="373" 
d="M239 914h83c0 -80 -41 -153 -138 -153s-135 74 -135 153h82c0 -35 18 -61 54 -61c33 0 54 20 54 61z" />
    <glyph glyph-name="zero.indic" unicode="&#x660;" horiz-adv-x="589" 
d="M553 345c0 -240 -124 -354 -267 -354c-172 0 -250 118 -250 339c0 239 124 354 267 354c172 0 250 -119 250 -339zM417 336c0 169 -40 241 -121 241c-71 0 -124 -64 -124 -239c0 -168 40 -240 121 -240c71 0 124 64 124 238z" />
    <glyph glyph-name="one.indic" unicode="&#x661;" horiz-adv-x="359" 
d="M286 0h-132v542l-116 -46l-19 122l166 57h101v-675z" />
    <glyph glyph-name="two.indic" unicode="&#x662;" horiz-adv-x="498" 
d="M458 0h-408v108l101 114c118 129 145 197 145 252c0 53 -32 94 -97 94c-43 0 -90 -17 -125 -38l-19 116c45 22 103 39 179 39c137 0 204 -84 204 -189c0 -88 -44 -180 -159 -306l-60 -70v-1c70 4 148 4 239 4v-123z" />
    <glyph glyph-name="three.indic" unicode="&#x663;" horiz-adv-x="473" 
d="M429 210c0 -131 -114 -220 -274 -220c-41 0 -85 5 -113 13l14 112c27 -10 63 -14 102 -14c84 0 133 43 133 101c0 54 -43 95 -143 95c-29 0 -51 -2 -70 -5v103c144 -4 193 43 193 102c0 47 -31 80 -95 80c-39 0 -76 -11 -111 -28l-10 107c42 17 99 29 155 29
c129 0 196 -69 196 -162c0 -74 -43 -129 -108 -153l-1 -2c82 -20 132 -81 132 -158z" />
    <glyph glyph-name="four.indic" unicode="&#x664;" horiz-adv-x="554" 
d="M536 148h-101v-148h-126v148h-283l-9 102l246 425h172v-410h101v-117zM311 263v295h-1l-172 -297c44 2 141 2 173 2z" />
    <glyph glyph-name="five.indic" unicode="&#x665;" horiz-adv-x="461" 
d="M429 229c0 -144 -119 -237 -286 -237c-33 0 -73 4 -100 10l13 114c25 -9 59 -13 94 -13c91 0 144 46 144 113c0 66 -52 102 -165 102c-22 0 -45 -1 -64 -4v361h333v-122l-213 1v-134c157 1 244 -70 244 -191z" />
    <glyph glyph-name="six.indic" unicode="&#x666;" horiz-adv-x="578" 
d="M541 231c0 -145 -104 -242 -254 -242c-167 0 -235 136 -235 294c0 269 153 401 348 401c33 0 60 -1 79 -4v-115c-28 7 -53 9 -81 9c-100 0 -173 -49 -202 -162c-3 -13 -6 -26 -8 -34l1 -1c31 31 80 55 145 55c129 0 207 -81 207 -201zM406 213c0 69 -36 113 -105 113
c-67 0 -109 -49 -109 -105c0 -75 38 -123 106 -123c66 0 108 47 108 115z" />
    <glyph glyph-name="seven.indic" unicode="&#x667;" horiz-adv-x="459" 
d="M435 565c-76 -168 -144 -390 -180 -565h-143c43 196 124 430 179 552c-38 -1 -189 -2 -269 -2v125h413v-110z" />
    <glyph glyph-name="eight.indic" unicode="&#x668;" horiz-adv-x="557" 
d="M514 183c0 -129 -115 -195 -247 -195c-142 0 -225 71 -225 178c0 78 56 133 122 174c-69 39 -111 90 -111 158c0 117 99 191 235 191c129 0 212 -71 212 -166c0 -76 -53 -125 -115 -167c73 -41 129 -93 129 -173zM369 512c0 39 -29 74 -91 74c-61 0 -95 -31 -95 -75
s37 -72 98 -104c59 37 88 67 88 105zM380 174c0 53 -53 84 -113 115c-50 -32 -91 -63 -91 -111c0 -51 38 -84 103 -84c57 0 101 30 101 80z" />
    <glyph glyph-name="nine.indic" unicode="&#x669;" horiz-adv-x="581" 
d="M530 393c0 -256 -122 -403 -354 -403c-31 0 -62 2 -90 7v116c34 -10 71 -13 100 -13c97 0 161 48 186 143c6 17 9 35 13 48l-1 1c-25 -31 -74 -56 -139 -56c-125 0 -203 81 -203 207c0 139 102 243 247 243c175 0 241 -138 241 -293zM386 451c0 80 -40 125 -104 125
c-63 0 -107 -46 -107 -116c0 -67 36 -112 104 -112c66 0 107 54 107 103z" />
    <glyph glyph-name="percentsign.arabic" unicode="&#x66a;" horiz-adv-x="655" 
d="M581 631l-416 -694l-92 45l416 694zM250 531c0 -46 -38 -83 -83 -83c-46 0 -83 37 -83 83c0 45 37 83 83 83c45 0 83 -38 83 -83zM404 83c0 46 38 83 83 83c46 0 83 -37 83 -83s-37 -83 -83 -83c-45 0 -83 37 -83 83z" />
    <glyph glyph-name="decimal.arabic" unicode="&#x66b;" horiz-adv-x="300" 
d="M128 149c94 0 138 -159 -48 -322l-53 47c69 73 73 116 41 154c-37 44 -10 121 60 121z" />
    <glyph glyph-name="thousands.arabic" unicode="&#x66c;" horiz-adv-x="300" 
d="M128 569c94 0 138 -159 -48 -322l-53 47c69 73 73 116 41 154c-37 44 -10 121 60 121z" />
    <glyph glyph-name="fivept_star.arabic" unicode="&#x66d;" horiz-adv-x="604" 
d="M214 11l-92 72l103 121l-155 34l38 110l143 -62l-11 158l119 1l-16 -158l144 62l41 -112l-155 -31l101 -122l-93 -71l-82 140z" />
    <glyph glyph-name="alef_superscript" unicode="&#x670;" horiz-adv-x="0" 
d="M48 14l-95 -14v236h95v-222z" />
    <glyph glyph-name="uni06C3" unicode="&#x6c3;" horiz-adv-x="594" 
d="M525 0h-219c-195 0 -268 90 -268 231c0 136 87 252 261 252c156 0 226 -90 226 -230v-253zM396 104v133c0 100 -40 142 -107 142c-75 0 -119 -57 -119 -135c0 -94 46 -140 150 -140h76zM373 546c-37 0 -66 30 -66 68c0 37 29 68 66 68s66 -30 66 -68
c0 -37 -29 -68 -66 -68zM207 546c-37 0 -66 30 -66 68c0 37 29 68 66 68c38 0 67 -30 67 -68c0 -37 -29 -68 -67 -68z" />
    <glyph glyph-name="arabicae" unicode="&#x6d5;" horiz-adv-x="594" 
d="M525 0h-219c-195 0 -268 90 -268 231c0 136 87 252 261 252c156 0 226 -90 226 -230v-253zM396 104v133c0 100 -40 142 -107 142c-75 0 -119 -57 -119 -135c0 -94 46 -140 150 -140h76z" />
    <glyph glyph-name="zero_ext.indic" unicode="&#x6f0;" horiz-adv-x="589" 
d="M553 345c0 -240 -124 -354 -267 -354c-172 0 -250 118 -250 339c0 239 124 354 267 354c172 0 250 -119 250 -339zM417 336c0 169 -40 241 -121 241c-71 0 -124 -64 -124 -239c0 -168 40 -240 121 -240c71 0 124 64 124 238z" />
    <glyph glyph-name="one_ext.indic" unicode="&#x6f1;" horiz-adv-x="359" 
d="M286 0h-132v542l-116 -46l-19 122l166 57h101v-675z" />
    <glyph glyph-name="two_ext.indic" unicode="&#x6f2;" horiz-adv-x="498" 
d="M458 0h-408v108l101 114c118 129 145 197 145 252c0 53 -32 94 -97 94c-43 0 -90 -17 -125 -38l-19 116c45 22 103 39 179 39c137 0 204 -84 204 -189c0 -88 -44 -180 -159 -306l-60 -70v-1c70 4 148 4 239 4v-123z" />
    <glyph glyph-name="three_ext.indic" unicode="&#x6f3;" horiz-adv-x="473" 
d="M429 210c0 -131 -114 -220 -274 -220c-41 0 -85 5 -113 13l14 112c27 -10 63 -14 102 -14c84 0 133 43 133 101c0 54 -43 95 -143 95c-29 0 -51 -2 -70 -5v103c144 -4 193 43 193 102c0 47 -31 80 -95 80c-39 0 -76 -11 -111 -28l-10 107c42 17 99 29 155 29
c129 0 196 -69 196 -162c0 -74 -43 -129 -108 -153l-1 -2c82 -20 132 -81 132 -158z" />
    <glyph glyph-name="four_ext.indic" unicode="&#x6f4;" horiz-adv-x="554" 
d="M536 148h-101v-148h-126v148h-283l-9 102l246 425h172v-410h101v-117zM311 263v295h-1l-172 -297c44 2 141 2 173 2z" />
    <glyph glyph-name="five_ext.indic" unicode="&#x6f5;" horiz-adv-x="461" 
d="M429 229c0 -144 -119 -237 -286 -237c-33 0 -73 4 -100 10l13 114c25 -9 59 -13 94 -13c91 0 144 46 144 113c0 66 -52 102 -165 102c-22 0 -45 -1 -64 -4v361h333v-122l-213 1v-134c157 1 244 -70 244 -191z" />
    <glyph glyph-name="six_ext.indic" unicode="&#x6f6;" horiz-adv-x="578" 
d="M541 231c0 -145 -104 -242 -254 -242c-167 0 -235 136 -235 294c0 269 153 401 348 401c33 0 60 -1 79 -4v-115c-28 7 -53 9 -81 9c-100 0 -173 -49 -202 -162c-3 -13 -6 -26 -8 -34l1 -1c31 31 80 55 145 55c129 0 207 -81 207 -201zM406 213c0 69 -36 113 -105 113
c-67 0 -109 -49 -109 -105c0 -75 38 -123 106 -123c66 0 108 47 108 115z" />
    <glyph glyph-name="seven_ext.indic" unicode="&#x6f7;" horiz-adv-x="459" 
d="M435 565c-76 -168 -144 -390 -180 -565h-143c43 196 124 430 179 552c-38 -1 -189 -2 -269 -2v125h413v-110z" />
    <glyph glyph-name="eight_ext.indic" unicode="&#x6f8;" horiz-adv-x="557" 
d="M514 183c0 -129 -115 -195 -247 -195c-142 0 -225 71 -225 178c0 78 56 133 122 174c-69 39 -111 90 -111 158c0 117 99 191 235 191c129 0 212 -71 212 -166c0 -76 -53 -125 -115 -167c73 -41 129 -93 129 -173zM369 512c0 39 -29 74 -91 74c-61 0 -95 -31 -95 -75
s37 -72 98 -104c59 37 88 67 88 105zM380 174c0 53 -53 84 -113 115c-50 -32 -91 -63 -91 -111c0 -51 38 -84 103 -84c57 0 101 30 101 80z" />
    <glyph glyph-name="nine_ext.indic" unicode="&#x6f9;" horiz-adv-x="581" 
d="M530 393c0 -256 -122 -403 -354 -403c-31 0 -62 2 -90 7v116c34 -10 71 -13 100 -13c97 0 161 48 186 143c6 17 9 35 13 48l-1 1c-25 -31 -74 -56 -139 -56c-125 0 -203 81 -203 207c0 139 102 243 247 243c175 0 241 -138 241 -293zM386 451c0 80 -40 125 -104 125
c-63 0 -107 -46 -107 -116c0 -67 36 -112 104 -112c66 0 107 54 107 103z" />
    <glyph glyph-name="parenthesis_left_ornate" unicode="&#xfd3e;" horiz-adv-x="362" 
d="M330 -205h-21c-130 0 -182 68 -182 223v135c0 83 -33 108 -100 112v96c68 4 100 24 100 108v87c0 146 50 221 182 221h21v-101c-65 0 -84 -22 -84 -118v-86c0 -106 -36 -148 -92 -158v-2c55 -8 92 -55 92 -161v-134c0 -97 19 -119 84 -119v-103z" />
    <glyph glyph-name="parenthesis_right_ornate" unicode="&#xfd3f;" horiz-adv-x="360" 
d="M338 265c-66 -4 -100 -29 -100 -112v-135c0 -155 -52 -223 -181 -223h-22v103c65 0 85 22 85 119v134c0 106 36 153 92 161v2c-57 8 -92 52 -92 155v89c0 96 -20 118 -85 118v101h22c132 0 181 -75 181 -221v-84c0 -87 32 -107 100 -111v-96z" />
    <glyph glyph-name="wasla" horiz-adv-x="0" 
d="M-29 69h103v13c0 44 -13 61 -35 61c-34 0 -58 -35 -68 -74zM-152 0v69h49c26 80 74 141 156 141c67 0 100 -41 100 -126v-84h-305z" />
    <glyph glyph-name="hamza_medial" horiz-adv-x="0" 
d="M-128 0v75c21 0 42 -1 56 -4c-12 6 -19 24 -19 39c0 56 40 112 145 112c27 0 52 -4 59 -5l-12 -75c-5 1 -27 5 -50 5c-31 0 -48 -14 -48 -34c0 -22 18 -38 69 -38h57v-75h-257z" />
    <glyph glyph-name="xx.TahAbove" horiz-adv-x="0" 
d="M68 115c0 30 -11 48 -38 48c-44 0 -88 -52 -101 -107h67c52 0 72 25 72 59zM-70 286v-78c0 -16 -3 -37 -7 -58h1c25 41 69 69 118 69c64 0 100 -33 100 -97c0 -74 -55 -122 -154 -122h-129v286h71z" />
    <glyph glyph-name="shadda_fathatan" horiz-adv-x="0" 
d="M-121 239l-8 49l210 32l8 -49zM-108 162l-9 49l211 33l7 -49zM16 36c-9 -23 -33 -36 -60 -36c-34 0 -48 20 -56 66l-7 37l51 9l6 -35c3 -16 8 -22 20 -22c13 -1 19 12 16 30l-5 38l50 9l7 -37c3 -18 10 -26 20 -26c18 1 21 16 19 37l-6 40l50 8l6 -37
c11 -61 -15 -99 -69 -100c-16 0 -32 7 -42 19z" />
    <glyph glyph-name="hamza_above_damma" horiz-adv-x="0" 
d="M-97 0v51c25 0 47 -3 58 -5c-14 6 -27 23 -27 43c0 53 56 72 114 72c20 0 43 -4 56 -7l-9 -49c-12 3 -31 6 -47 6c-26 0 -46 -5 -46 -25c0 -21 21 -35 63 -35h51v-51h-213zM-117 154l-10 48l92 19s-6 16 -6 33c1 51 42 88 93 88c52 0 76 -28 76 -69
c-1 -47 -32 -76 -84 -86zM18 232l21 4c22 5 34 15 34 35c0 15 -11 22 -26 22c-19 0 -33 -15 -33 -37c0 -13 4 -24 4 -24z" />
    <glyph glyph-name="hamza_above_sukun" horiz-adv-x="0" 
d="M7 192c-48 0 -85 20 -85 78c0 50 39 84 91 84c54 0 85 -27 85 -78c0 -53 -41 -84 -91 -84zM9 238c19 0 31 13 31 36c0 22 -12 34 -29 34c-18 0 -32 -13 -32 -34c0 -22 9 -36 30 -36zM-106 0v52c25 0 47 -4 57 -5c-13 5 -26 23 -26 43c0 52 56 72 114 72c17 0 39 -3 56 -8
l-9 -48c-13 2 -32 5 -47 5c-26 0 -46 -4 -46 -25s21 -34 63 -34h51v-52h-213z" />
    <glyph glyph-name="hamza_above_fathatan" horiz-adv-x="0" 
d="M-107 248l-9 49l210 33l9 -49zM-94 172l-9 48l211 33l7 -48zM-95 0v52c24 0 46 -4 57 -5c-13 5 -27 23 -27 43c0 52 56 71 115 71c19 0 42 -4 56 -7l-9 -48c-13 3 -32 5 -48 5c-26 0 -45 -5 -45 -25c0 -21 20 -34 63 -34h50v-52h-212z" />
    <glyph glyph-name="hamza_above_dammatan" horiz-adv-x="0" 
d="M-88 0v51c25 0 47 -3 57 -5c-13 6 -26 23 -26 43c0 53 56 72 114 72c20 0 42 -4 56 -7l-9 -49c-13 3 -32 6 -47 6c-26 0 -46 -5 -46 -25c0 -21 21 -35 63 -35h51v-51h-213zM-108 153l-28 132l54 12l18 -83l36 7s-5 16 -4 33c0 51 41 88 92 88c52 0 76 -28 76 -69
c0 -47 -32 -75 -85 -86zM27 232l19 4c22 5 35 15 35 35c0 15 -10 22 -25 22c-20 0 -34 -15 -34 -37c0 -13 5 -24 5 -24z" />
    <glyph glyph-name="hamza_above_fatha" horiz-adv-x="0" 
d="M-102 173l-8 49l210 32l8 -49zM-103 0v52c25 0 47 -4 58 -5c-14 5 -27 23 -27 43c0 52 56 72 114 72c20 0 42 -4 56 -8l-9 -48c-13 3 -32 5 -47 5c-26 0 -46 -4 -46 -25s21 -34 63 -34h51v-52h-213z" />
    <glyph glyph-name="hamza_below_kasratan" horiz-adv-x="0" 
d="M-101 -277v44h202v-44h-202zM-101 -212v44h202v-44h-202zM-101 -147v46c24 0 45 -3 55 -4c-13 4 -25 21 -25 40c0 47 52 65 108 65c19 0 40 -3 53 -7l-8 -43c-13 2 -31 5 -46 5c-25 0 -44 -5 -44 -23c0 -20 20 -33 61 -33h48v-46h-202z" />
    <glyph glyph-name="hamza_below_kasra" horiz-adv-x="0" 
d="M-106 -233v49h213v-49h-213zM-106 -161v52c25 0 47 -4 57 -5c-13 5 -26 22 -26 43c0 52 56 71 114 71c20 0 42 -4 56 -7l-9 -48c-13 3 -32 5 -47 5c-26 0 -46 -5 -46 -25c0 -21 21 -34 63 -34h51v-52h-213z" />
    <glyph glyph-name="wasle" horiz-adv-x="102" 
d="M0 0v104h119v-104h-119z" />
    <glyph glyph-name="Kashida.Narrow" horiz-adv-x="189" 
d="M0 0v104h209v-104h-209z" />
    <glyph glyph-name="kashida.long" horiz-adv-x="197" 
d="M-1 0v104h199v-104h-199z" />
    <glyph glyph-name="tooth.init" horiz-adv-x="346" 
d="M0 0v104h140v366h132v-470h-272z" />
    <glyph glyph-name="tooth.init.long" horiz-adv-x="394" 
d="M0 0v104h188v366h132v-470h-320z" />
    <glyph glyph-name="logo" unicode="&#xfb;" horiz-adv-x="2985" 
d="M1098 43v47c-34 -1 -60 -6 -60 -31c0 -18 11 -28 29 -28c10 0 23 4 31 12zM1300 7v277h51v-83c10 2 23 3 32 3c55 0 94 -20 94 -105c0 -66 -43 -103 -100 -103c-28 0 -53 4 -77 11zM1351 156v-116c9 -1 18 -2 27 -2c25 0 47 22 47 61c0 59 -24 61 -45 61
c-10 0 -20 -2 -29 -4zM2124 0h-60l-55 91h-16v-91h-51v283h51v-172l73 86h56l-71 -81zM376 0h-51v197h51v-197zM351 224c-15 0 -28 12 -28 28s13 28 28 28s28 -12 28 -28s-13 -28 -28 -28zM606 0h-51v100c0 35 -6 57 -40 57c-12 0 -25 -2 -37 -4v-153h-51v192
c22 6 61 12 94 12c59 0 85 -31 85 -85v-119zM1894 0h-51v100c0 35 -6 57 -40 57c-12 0 -25 -2 -37 -4v-153h-51v192c22 6 61 12 95 12c58 0 84 -31 84 -85v-119zM956 0h-51v100c0 35 -5 57 -39 57c-11 0 -27 -4 -39 -11c2 -7 3 -19 3 -27v-119h-51v100c0 35 -5 57 -39 57
c-11 0 -24 -2 -35 -4v-153h-51v192c22 6 60 12 92 12c26 0 46 -7 56 -15c21 10 47 15 70 15c58 0 84 -30 84 -85v-119zM290 39l1 -39h-32c-37 0 -56 18 -56 65v219h51v-216c0 -20 7 -29 22 -29h14zM2106 599v-100c0 -56 -27 -80 -71 -80c-21 0 -43 11 -58 29
c-12 -23 -34 -26 -53 -26h-425c-14 -56 -62 -78 -106 -78l-12 42c26 0 67 17 67 71v142h56v-136h65v105l56 17v-25c52 15 99 25 136 25c73 0 102 -47 110 -122h34c14 0 25 6 25 31v35c0 52 26 82 83 82c33 0 72 -6 93 -12zM1625 463h189c-7 49 -28 71 -62 71
c-28 0 -64 -6 -127 -23v-48zM2051 491v67c-7 1 -17 2 -29 2c-33 0 -37 -22 -37 -57v-4c10 -20 31 -39 45 -39c15 0 21 11 21 31zM1290 611c33 0 72 -6 94 -12v-107c0 -51 -36 -70 -85 -70h-170c-36 0 -67 27 -67 65v55l56 17v-65c0 -20 13 -31 33 -31h81
c-15 20 -25 43 -25 66c0 51 26 82 83 82zM1328 494v64c-7 1 -18 2 -28 2c-28 0 -37 -18 -37 -38c0 -27 25 -59 37 -59c19 0 28 11 28 31zM1305 641c-17 0 -30 13 -30 30s13 30 30 30s30 -13 30 -30s-13 -30 -30 -30zM933 422h-56v279h56v-279zM766 494v207h55v-209
c0 -64 -34 -70 -60 -70h-126l12 41h22v238h41v-238h32c13 0 24 6 24 31zM705 358h-40l4 13h6c-1 2 -2 5 -2 8c0 12 14 21 33 17l-3 -13c-8 1 -13 -2 -13 -6s3 -6 9 -6h9zM574 641c-17 0 -30 13 -30 30s13 30 30 30s30 -13 30 -30s-13 -30 -30 -30zM133 422h-129l13 41h20
c-5 8 -8 17 -8 29c0 41 46 66 110 55l-12 -44c-31 4 -43 -8 -43 -20s11 -20 29 -20h32zM526 422h-22c-16 0 -32 5 -46 15c-13 -13 -30 -18 -51 -18c-22 0 -43 11 -58 29c-12 -23 -34 -26 -53 -26h-55c-26 0 -61 6 -61 70v209h56v-207c0 -25 11 -31 24 -31h17
c14 0 25 6 25 31v35c1 52 26 82 83 82c33 0 72 -6 93 -12v-92c0 -31 16 -44 38 -44c16 0 30 6 30 31v105h56v-107c0 -61 -30 -70 -76 -70zM423 491v67c-7 1 -17 2 -29 2c-33 0 -37 -22 -37 -57v-4c10 -20 31 -39 45 -39c15 0 21 11 21 31zM2985 0h-703v701h703v-701z
M2717 123v511l-172 -56v-511zM1149 0h-40l-2 9c-14 -9 -34 -13 -52 -13c-40 0 -65 25 -65 61c0 47 42 65 108 68v1c0 28 -10 36 -35 36c-12 0 -32 -4 -52 -9l-11 40c23 5 54 11 76 11c35 0 73 -8 73 -70v-134zM1667 0h-40l-2 9c-14 -9 -34 -13 -52 -13c-40 0 -65 25 -65 61
c0 47 42 65 108 68v1c0 28 -10 36 -35 36c-12 0 -32 -4 -52 -9l-11 40c23 5 54 11 76 11c35 0 73 -8 73 -70v-134zM1616 43v47c-34 -1 -60 -6 -60 -31c0 -18 11 -28 29 -28c10 0 23 4 31 12zM159 0h-40l-2 9c-14 -9 -34 -13 -52 -13c-40 0 -65 25 -65 61c0 47 42 65 108 68
v1c0 28 -10 36 -35 36c-12 0 -32 -4 -52 -9l-11 40c23 5 54 11 76 11c35 0 73 -8 73 -70v-134zM108 43v47c-34 -1 -60 -6 -60 -31c0 -18 11 -28 29 -28c10 0 23 4 31 12z" />
    </font>
</defs>
</svg>
